  0
SECTION
  2
HEADER
  9
$ACADVER
  1
AC1015
  9
$ACADMAINTVER
 70
     6
  9
$DWGCODEPAGE
  3
ANSI_936
  9
$INSBASE
 10
0.0
 20
0.0
 30
0.0
  9
$EXTMIN
 10
-10.0
 20
-10.0
 30
0.0
  9
$EXTMAX
 10
430.0
 20
307.0
 30
0.0
  9
$LIMMIN
 10
0.0
 20
0.0
  9
$LIMMAX
 10
0.0
 20
0.0
  9
$ORTHOMODE
 70
     0
  9
$REGENMODE
 70
     1
  9
$FILLMODE
 70
     1
  9
$QTEXTMODE
 70
     0
  9
$MIRRTEXT
 70
     1
  9
$LTSCALE
 40
1.0
  9
$ATTMODE
 70
     1
  9
$TEXTSIZE
 40
0.2
  9
$TRACEWID
 40
0.05
  9
$TEXTSTYLE
  7
Standard
  9
$CLAYER
  8
0
  9
$CELTYPE
  6
Continuous
  9
$CECOLOR
 62
   256
  9
$CELTSCALE
 40
1.0
  9
$DISPSILH
 70
     0
  9
$DIMSCALE
 40
1.0
  9
$DIMASZ
 40
0.18
  9
$DIMEXO
 40
0.0625
  9
$DIMDLI
 40
0.38
  9
$DIMRND
 40
0.0
  9
$DIMDLE
 40
0.0
  9
$DIMEXE
 40
0.18
  9
$DIMTP
 40
0.0
  9
$DIMTM
 40
0.0
  9
$DIMTXT
 40
0.18
  9
$DIMCEN
 40
0.09
  9
$DIMTSZ
 40
0.0
  9
$DIMTOL
 70
     0
  9
$DIMLIM
 70
     0
  9
$DIMTIH
 70
     1
  9
$DIMTOH
 70
     1
  9
$DIMSE1
 70
     0
  9
$DIMSE2
 70
     0
  9
$DIMTAD
 70
     0
  9
$DIMZIN
 70
     0
  9
$DIMBLK
  1

  9
$DIMASO
 70
     1
  9
$DIMSHO
 70
     1
  9
$DIMPOST
  1

  9
$DIMAPOST
  1

  9
$DIMALT
 70
     0
  9
$DIMALTD
 70
     2
  9
$DIMALTF
 40
25.4
  9
$DIMLFAC
 40
1.0
  9
$DIMTOFL
 70
     0
  9
$DIMTVP
 40
0.0
  9
$DIMTIX
 70
     0
  9
$DIMSOXD
 70
     0
  9
$DIMSAH
 70
     0
  9
$DIMBLK1
  1

  9
$DIMBLK2
  1

  9
$DIMSTYLE
  2
Standard
  9
$DIMCLRD
 70
     0
  9
$DIMCLRE
 70
     0
  9
$DIMCLRT
 70
     0
  9
$DIMTFAC
 40
1.0
  9
$DIMGAP
 40
0.09
  9
$DIMJUST
 70
     0
  9
$DIMSD1
 70
     0
  9
$DIMSD2
 70
     0
  9
$DIMTOLJ
 70
     1
  9
$DIMTZIN
 70
     0
  9
$DIMALTZ
 70
     0
  9
$DIMALTTZ
 70
     0
  9
$DIMUPT
 70
     0
  9
$DIMDEC
 70
     4
  9
$DIMTDEC
 70
     4
  9
$DIMALTU
 70
     2
  9
$DIMALTTD
 70
     2
  9
$DIMTXSTY
  7
Standard
  9
$DIMAUNIT
 70
     0
  9
$DIMADEC
 70
     0
  9
$DIMALTRND
 40
0.0
  9
$DIMAZIN
 70
     0
  9
$DIMDSEP
 70
     0
  9
$DIMATFIT
 70
     3
  9
$DIMFRAC
 70
     0
  9
$DIMLDRBLK
  1

  9
$DIMLUNIT
 70
     2
  9
$DIMLWD
 70
     0
  9
$DIMLWE
 70
     0
  9
$DIMTMOVE
 70
     0
  9
$LUNITS
 70
     2
  9
$LUPREC
 70
     4
  9
$SKETCHINC
 40
0.1
  9
$FILLETRAD
 40
0.0
  9
$AUNITS
 70
     0
  9
$AUPREC
 70
     0
  9
$MENU
  1
acad
  9
$ELEVATION
 40
0.0
  9
$PELEVATION
 40
0.0
  9
$THICKNESS
 40
0.0
  9
$LIMCHECK
 70
     0
  9
$CHAMFERA
 40
0.0
  9
$CHAMFERB
 40
0.0
  9
$CHAMFERC
 40
0.0
  9
$CHAMFERD
 40
0.0
  9
$SKPOLY
 70
     0
  9
$TDCREATE
 40
0.000000000
  9
$TDUCREATE
 40
0.000000000
  9
$TDUPDATE
 40
0.000000000
  9
$TDUUPDATE
 40
0.000000000
  9
$TDINDWG
 40
0.0000000000
  9
$TDUSRTIMER
 40
0.0000000000
  9
$USRTIMER
 70
     1
  9
$ANGBASE
 50
0.0
  9
$ANGDIR
 70
     0
  9
$PDMODE
 70
     0
  9
$PDSIZE
 40
0.0
  9
$PLINEWID
 40
0.0
  9
$SPLFRAME
 70
     0
  9
$SPLINETYPE
 70
     6
  9
$SPLINESEGS
 70
     8
  9
$HANDSEED
  5
24B
  9
$SURFTAB1
 70
     6
  9
$SURFTAB2
 70
     6
  9
$SURFTYPE
 70
     6
  9
$SURFU
 70
     6
  9
$SURFV
 70
     6
  9
$UCSBASE
  2

  9
$UCSNAME
  2

  9
$UCSORG
 10
0.0
 20
0.0
 30
0.0
  9
$UCSXDIR
 10
1.0
 20
0.0
 30
0.0
  9
$UCSYDIR
 10
0.0
 20
1.0
 30
0.0
  9
$UCSORTHOREF
  2

  9
$UCSORTHOVIEW
 70
     0
  9
$UCSORGTOP
 10
0.0
 20
0.0
 30
0.0
  9
$UCSORGBOTTOM
 10
0.0
 20
0.0
 30
0.0
  9
$UCSORGLEFT
 10
0.0
 20
0.0
 30
0.0
  9
$UCSORGRIGHT
 10
0.0
 20
0.0
 30
0.0
  9
$UCSORGFRONT
 10
0.0
 20
0.0
 30
0.0
  9
$UCSORGBACK
 10
0.0
 20
0.0
 30
0.0
  9
$PUCSBASE
  2

  9
$PUCSNAME
  2

  9
$PUCSORG
 10
0.0
 20
0.0
 30
0.0
  9
$PUCSXDIR
 10
1.0
 20
0.0
 30
0.0
  9
$PUCSYDIR
 10
0.0
 20
1.0
 30
0.0
  9
$PUCSORTHOREF
  2

  9
$PUCSORTHOVIEW
 70
     0
  9
$PUCSORGTOP
 10
0.0
 20
0.0
 30
0.0
  9
$PUCSORGBOTTOM
 10
0.0
 20
0.0
 30
0.0
  9
$PUCSORGLEFT
 10
0.0
 20
0.0
 30
0.0
  9
$PUCSORGRIGHT
 10
0.0
 20
0.0
 30
0.0
  9
$PUCSORGFRONT
 10
0.0
 20
0.0
 30
0.0
  9
$PUCSORGBACK
 10
0.0
 20
0.0
 30
0.0
  9
$USERI1
 70
     0
  9
$USERI2
 70
     0
  9
$USERI3
 70
     0
  9
$USERI4
 70
     0
  9
$USERI5
 70
     0
  9
$USERR1
 40
0.0
  9
$USERR2
 40
0.0
  9
$USERR3
 40
0.0
  9
$USERR4
 40
0.0
  9
$USERR5
 40
0.0
  9
$WORLDVIEW
 70
     1
  9
$SHADEDGE
 70
     3
  9
$SHADEDIF
 70
    70
  9
$TILEMODE
 70
     1
  9
$MAXACTVP
 70
    16
  9
$PINSBASE
 10
0.0
 20
0.0
 30
0.0
  9
$PLIMCHECK
 70
     0
  9
$PEXTMIN
 10
0.0
 20
0.0
 30
0.0
  9
$PEXTMAX
 10
440.0
 20
317.0
 30
0.0
  9
$PLIMMIN
 10
0.0
 20
0.0
  9
$PLIMMAX
 10
440.0
 20
317.0
  9
$UNITMODE
 70
     0
  9
$VISRETAIN
 70
     0
  9
$PLINEGEN
 70
     1
  9
$PSLTSCALE
 70
     0
  9
$TREEDEPTH
 70
  3020
  9
$CMLSTYLE
  2
Standard
  9
$CMLJUST
 70
     0
  9
$CMLSCALE
 40
1.0
  9
$PROXYGRAPHICS
 70
     1
  9
$MEASUREMENT
 70
     0
  9
$CELWEIGHT
370
     0
  9
$ENDCAPS
280
     0
  9
$JOINSTYLE
280
     0
  9
$LWDISPLAY
290
     0
  9
$INSUNITS
 70
     0
  9
$HYPERLINKBASE
  1

  9
$STYLESHEET
  1

  9
$XEDIT
290
     1
  9
$CEPSNTYPE
380
     0
  9
$PSTYLEMODE
290
     1
  9
$FINGERPRINTGUID
  2

  9
$VERSIONGUID
  2

  9
$EXTNAMES
290
     1
  9
$PSVPSCALE
 40
0.0
  0
ENDSEC
  0
SECTION
  2
CLASSES
  0
CLASS
  1
LWPOLYLINE
  2
AcDbPolyline
  3
AutoCAD 2000
 90
        0
280
     0
281
     1
  0
CLASS
  1
IMAGE
  2
AcDbRasterImage
  3
ISM
 90
      127
280
     0
281
     1
  0
CLASS
  1
OLE2FRAME
  2
AcDbOle2Frame
  3
AutoCAD 2000
 90
        0
280
     0
281
     1
  0
CLASS
  1
HATCH
  2
AcDbHatch
  3
AutoCAD 2000
 90
        0
280
     0
281
     1
  0
CLASS
  1
DICTIONARYVAR
  2
AcDbDictionaryVar
  3
AutoCAD 2000
 90
        0
280
     0
281
     0
  0
CLASS
  1
RASTERVARIABLES
  2
AcDbRasterVariables
  3
ISM
 90
        0
280
     0
281
     0
  0
CLASS
  1
IMAGEDEF
  2
AcDbRasterImageDef
  3
ISM
 90
        0
280
     0
281
     0
  0
CLASS
  1
IMAGEDEF_REACTOR
  2
AcDbRasterImageDefReactor
  3
ISM
 90
        1
280
     0
281
     0
  0
CLASS
  1
IDBUFFER
  2
AcDbIdBuffer
  3
AutoCAD 2000
 90
        0
280
     0
281
     0
  0
CLASS
  1
SPATIAL_FILTER
  2
AcDbSpatialFilter
  3
AutoCAD 2000
 90
        0
280
     0
281
     0
  0
CLASS
  1
XRECORD
  2
AcDbXrecord
  3
AutoCAD 2000
 90
        0
280
     0
281
     0
  0
CLASS
  1
SORTENTSTABLE
  2
AcDbSortentsTable
  3
AutoCAD 2000
 90
        0
280
     0
281
     0
  0
CLASS
  1
LAYER_INDEX
  2
AcDbLayerIndex
  3
AutoCAD 2000
 90
        0
280
     0
281
     0
  0
CLASS
  1
SPATIAL_INDEX
  2
AcDbSpatialIndex
  3
AutoCAD 2000
 90
        0
280
     0
281
     0
  0
CLASS
  1
OBJECT_PTR
  2
CAseDLPNTableRecord
  3
"ASE-LPNTableRecord"
 90
        1
280
     0
281
     0
  0
CLASS
  1
LAYOUT
  2
AcDbLayout
  3
AutoCAD 2000
 90
        0
280
     0
281
     0
  0
CLASS
  1
PLOTSETTINGS
  2
AcDbPlotSettings
  3
AutoCAD 2000
 90
        0
280
     0
281
     0
  0
CLASS
  1
ACDBDICTIONARYWDFLT
  2
AcDbDictionaryWithDefault
  3
AutoCAD 2000
 90
        0
280
     0
281
     0
  0
CLASS
  1
ACDBPLACEHOLDER
  2
AcDbPlaceHolder
  3
AutoCAD 2000
 90
        0
280
     0
281
     0
  0
CLASS
  1
VBA_PROJECT
  2
AcDbVbaProject
  3
acadvba
 90
        0
280
     0
281
     0
  0
CLASS
  1
WIPEOUT
  2
AcDbWipeout
  3
WipeOut|AutoCAD Express Tool|expresstools@autodesk.com
 90
      127
280
     0
281
     1
  0
CLASS
  1
WIPEOUTVARIABLES
  2
AcDbWipeoutVariables
  3
WipeOut|AutoCAD Express Tool|expresstools@autodesk.com
 90
        0
280
     0
281
     0
  0
CLASS
  1
RTEXT
  2
RText
  3
RText|AutoCAD Express Tool|expresstools@autodesk.com
 90
        0
280
     0
281
     1
  0
CLASS
  1
ARCALIGNEDTEXT
  2
AcDbArcAlignedText
  3
ATEXT|AutoCAD Express Tool|expresstools@autodesk.com
 90
        0
280
     0
281
     1
  0
CLASS
  1
KmSymbl
  2
KmSymbl
  3
KMCAD2005
 90
        0
280
     0
281
     1
  0
CLASS
  1
KmYinChuBZ
  2
KmYinChuBZ
  3
KMCAD2005
 90
        0
280
     0
281
     1
  0
CLASS
  1
KmRough
  2
KmRough
  3
KMCAD2005
 90
        0
280
     0
281
     1
  0
CLASS
  1
KmPouQie
  2
KmPouQie
  3
KMCAD2005
 90
        0
280
     0
281
     1
  0
CLASS
  1
KmDaoJiao
  2
KmDaoJiao
  3
KMCAD2005
 90
        0
280
     0
281
     1
  0
CLASS
  1
KmTolerance
  2
KmTolerance
  3
KMCAD2005
 90
        0
280
     0
281
     1
  0
CLASS
  1
KmBiaoGao
  2
KmBiaoGao
  3
KMCAD2005
 90
        0
280
     0
281
     1
  0
CLASS
  1
KmWeld
  2
KmWeld
  3
KMCAD2005
 90
        0
280
     0
281
     1
  0
CLASS
  1
KmWZDJ
  2
KmWZDJ
  3
KMCAD2005
 90
        0
280
     0
281
     1
  0
CLASS
  1
KmWZYJ
  2
KmWZYJ
  3
KMCAD2005
 90
        0
280
     0
281
     1
  0
CLASS
  1
KmXieDu
  2
KmXieDu
  3
KMCAD2005
 90
        0
280
     0
281
     1
  0
CLASS
  1
KmZhuiDu
  2
KmZhuiDu
  3
KMCAD2005
 90
        0
280
     0
281
     1
  0
CLASS
  1
KmDXBZ
  2
KmDXBZ
  3
KMCAD2005
 90
        0
280
     0
281
     1
  0
CLASS
  1
KmNormSymbl
  2
KmNormSymbl
  3
KMCAD2005
 90
        0
280
     0
281
     1
  0
CLASS
  1
KmBiaoShi
  2
KmBiaoShi
  3
KMCAD2005
 90
        0
280
     0
281
     1
  0
ENDSEC
  0
SECTION
  2
TABLES
  0
TABLE
  2
VPORT
  5
7
100
AcDbSymbolTable
 70
     1
  0
VPORT
  5
15
100
AcDbSymbolTableRecord
100
AcDbViewportTableRecord
  2
*ACTIVE
 70
     0
 10
0.0
 20
0.0
 11
1.0
 21
1.0
 12
210.0
 22
148.5
 13
0.0
 23
0.0
 14
1.0
 24
1.0
 15
0.0
 25
0.0
 16
0.0
 26
0.0
 36
1.0
 17
0.0
 27
0.0
 37
0.0
 40
317.0
 41
1.388013
 42
50.0
 43
0.0
 44
0.0
 50
0.0
 51
0.0
 71
     0
 72
   100
 73
     1
 74
     1
 75
     0
 76
     0
 77
     0
 78
     0
281
     0
 65
     0
110
0.0
120
0.0
130
0.0
111
1.0
121
0.0
131
0.0
112
0.0
122
1.0
132
0.0
345
0
346
0
 79
     0
146
0.0
  0
ENDTAB
  0
TABLE
  2
LTYPE
  5
4
100
AcDbSymbolTable
 70
    18
  0
LTYPE
  5
11
100
AcDbSymbolTableRecord
100
AcDbLinetypeTableRecord
  2
ByBlock
 70
    64
  3

 72
    65
 73
     0
 40
0.0
  0
LTYPE
  5
12
100
AcDbSymbolTableRecord
100
AcDbLinetypeTableRecord
  2
ByLayer
 70
    64
  3

 72
    65
 73
     0
 40
0.0
  0
LTYPE
  5
13
100
AcDbSymbolTableRecord
100
AcDbLinetypeTableRecord
  2
Continuous
 70
    64
  3
Solid line
 72
    65
 73
     0
 40
0.0
  0
LTYPE
  5
24
100
AcDbSymbolTableRecord
100
AcDbLinetypeTableRecord
  2
KM_SOLID
 70
    64
  3
开目实线
 72
    65
 73
     0
 40
0.0
  0
LTYPE
  5
25
100
AcDbSymbolTableRecord
100
AcDbLinetypeTableRecord
  2
KM_DASH
 70
    64
  3
开目虚线
 72
    65
 73
     2
 40
7.0
 49
5.0
 74
     0
 49
-2.0
 74
     0
  0
LTYPE
  5
26
100
AcDbSymbolTableRecord
100
AcDbLinetypeTableRecord
  2
KM_DOT
 70
    64
  3
开目点线
 72
    65
 73
     2
 40
4.0
 49
2.0
 74
     0
 49
-2.0
 74
     0
  0
LTYPE
  5
27
100
AcDbSymbolTableRecord
100
AcDbLinetypeTableRecord
  2
KM_SPACE
 70
    64
  3
开目间隔线
 72
    65
 73
     2
 40
10.0
 49
5.0
 74
     0
 49
-7.0
 74
     0
  0
LTYPE
  5
28
100
AcDbSymbolTableRecord
100
AcDbLinetypeTableRecord
  2
KM_LONGDASH_SHORTDASH
 70
    64
  3
开目长画短画线
 72
    65
 73
     4
 40
17.0
 49
10.0
 74
     0
 49
-2.0
 74
     0
 49
3.0
 74
     0
 49
-2.0
 74
     0
  0
LTYPE
  5
29
100
AcDbSymbolTableRecord
100
AcDbLinetypeTableRecord
  2
KM_LONGDASH_2SHORTDASH
 70
    64
  3
开目长画双短画线
 72
    65
 73
     6
 40
22.0
 49
10.0
 74
     0
 49
-2.0
 74
     0
 49
3.0
 74
     0
 49
-2.0
 74
     0
 49
3.0
 74
     0
 49
-2.0
 74
     0
  0
LTYPE
  5
2A
100
AcDbSymbolTableRecord
100
AcDbLinetypeTableRecord
  2
KM_SHORTDASH_DOT
 70
    64
  3
开目短画点线
 72
    65
 73
     4
 40
10.0
 49
5.0
 74
     0
 49
-2.0
 74
     0
 49
1.0
 74
     0
 49
-2.0
 74
     0
  0
LTYPE
  5
2B
100
AcDbSymbolTableRecord
100
AcDbLinetypeTableRecord
  2
KM_2SHORTDASH_DOT
 70
    64
  3
开目双短画点线
 72
    65
 73
     6
 40
17.0
 49
5.0
 74
     0
 49
-2.0
 74
     0
 49
5.0
 74
     0
 49
-2.0
 74
     0
 49
1.0
 74
     0
 49
-2.0
 74
     0
  0
LTYPE
  5
2C
100
AcDbSymbolTableRecord
100
AcDbLinetypeTableRecord
  2
KM_POINT
 70
    64
  3
开目点划线
 72
    65
 73
     4
 40
15.0
 49
10.0
 74
     0
 49
-2.0
 74
     0
 49
1.0
 74
     0
 49
-2.0
 74
     0
  0
LTYPE
  5
2D
100
AcDbSymbolTableRecord
100
AcDbLinetypeTableRecord
  2
KM_SHORTDASH_2DOT
 70
    64
  3
开目短画双点线
 72
    65
 73
     6
 40
13.0
 49
5.0
 74
     0
 49
-2.0
 74
     0
 49
1.0
 74
     0
 49
-2.0
 74
     0
 49
1.0
 74
     0
 49
-2.0
 74
     0
  0
LTYPE
  5
2E
100
AcDbSymbolTableRecord
100
AcDbLinetypeTableRecord
  2
KM_2SHORTDASH_2DOT
 70
    64
  3
开目双短画双点线
 72
    65
 73
     8
 40
20.0
 49
5.0
 74
     0
 49
-2.0
 74
     0
 49
5.0
 74
     0
 49
-2.0
 74
     0
 49
1.0
 74
     0
 49
-2.0
 74
     0
 49
1.0
 74
     0
 49
-2.0
 74
     0
  0
LTYPE
  5
2F
100
AcDbSymbolTableRecord
100
AcDbLinetypeTableRecord
  2
KM_POINT_POINT
 70
    64
  3
开目双点划线
 72
    65
 73
     6
 40
18.0
 49
10.0
 74
     0
 49
-2.0
 74
     0
 49
1.0
 74
     0
 49
-2.0
 74
     0
 49
1.0
 74
     0
 49
-2.0
 74
     0
  0
LTYPE
  5
30
100
AcDbSymbolTableRecord
100
AcDbLinetypeTableRecord
  2
KM_SHORTDASH_3DOT
 70
    64
  3
开目短画三点线
 72
    65
 73
     8
 40
16.0
 49
5.0
 74
     0
 49
-2.0
 74
     0
 49
1.0
 74
     0
 49
-2.0
 74
     0
 49
1.0
 74
     0
 49
-2.0
 74
     0
 49
1.0
 74
     0
 49
-2.0
 74
     0
  0
LTYPE
  5
31
100
AcDbSymbolTableRecord
100
AcDbLinetypeTableRecord
  2
KM_2SHORTDASH_3DOT
 70
    64
  3
开目双点画三点线
 72
    65
 73
    10
 40
23.0
 49
5.0
 74
     0
 49
-2.0
 74
     0
 49
5.0
 74
     0
 49
-2.0
 74
     0
 49
1.0
 74
     0
 49
-2.0
 74
     0
 49
1.0
 74
     0
 49
-2.0
 74
     0
 49
1.0
 74
     0
 49
-2.0
 74
     0
  0
LTYPE
  5
32
100
AcDbSymbolTableRecord
100
AcDbLinetypeTableRecord
  2
KM_3DOT
 70
    64
  3
开目三点线
 72
    65
 73
     8
 40
21.0
 49
10.0
 74
     0
 49
-2.0
 74
     0
 49
1.0
 74
     0
 49
-2.0
 74
     0
 49
1.0
 74
     0
 49
-2.0
 74
     0
 49
1.0
 74
     0
 49
-2.0
 74
     0
  0
ENDTAB
  0
TABLE
  2
LAYER
  5
2
100
AcDbSymbolTable
 70
    38
  0
LAYER
  5
14
100
AcDbSymbolTableRecord
100
AcDbLayerTableRecord
  2
0
 70
     0
 62
     7
  6
Continuous
290
     1
370
    -3
390
1D
  0
LAYER
  5
33
100
AcDbSymbolTableRecord
100
AcDbLayerTableRecord
  2
图层
 70
     0
 62
     7
  6
KM_SOLID
290
     1
370
    50
390
1D
  0
LAYER
  5
34
100
AcDbSymbolTableRecord
100
AcDbLayerTableRecord
  2
0
 70
     0
 62
   255
  6
KM_SOLID
290
     1
370
    13
390
1D
  0
LAYER
  5
35
100
AcDbSymbolTableRecord
100
AcDbLayerTableRecord
  2
图层0352
 70
     0
 62
   255
  6
KM_SOLID
290
     1
370
    50
390
1D
  0
LAYER
  5
36
100
AcDbSymbolTableRecord
100
AcDbLayerTableRecord
  2
DEFAULT0951
 70
     0
 62
   255
  6
KM_DASH
290
     1
370
    13
390
1D
  0
LAYER
  5
37
100
AcDbSymbolTableRecord
100
AcDbLayerTableRecord
  2
DEFAULT0952
 70
     0
 62
     8
  6
KM_DASH
290
     1
370
    13
390
1D
  0
LAYER
  5
38
100
AcDbSymbolTableRecord
100
AcDbLayerTableRecord
  2
DEFAULT0953
 70
     0
 62
   255
  6
KM_DASH
290
     1
370
    13
390
1D
  0
LAYER
  5
39
100
AcDbSymbolTableRecord
100
AcDbLayerTableRecord
  2
01095ALL095DTM095PLN
 70
     0
 62
   255
  6
KM_SOLID
290
     1
370
    13
390
1D
  0
LAYER
  5
3A
100
AcDbSymbolTableRecord
100
AcDbLayerTableRecord
  2
01095095ASM095ALL095DTM095PLN
 70
     0
 62
   255
  6
KM_SOLID
290
     1
370
    13
390
1D
  0
LAYER
  5
3B
100
AcDbSymbolTableRecord
100
AcDbLayerTableRecord
  2
01095095ASM095DEF095DTM095PLN
 70
     0
 62
   255
  6
KM_SOLID
290
     1
370
    13
390
1D
  0
LAYER
  5
3C
100
AcDbSymbolTableRecord
100
AcDbLayerTableRecord
  2
01095095095PRT095ALL095DTM095PLN
 70
     0
 62
   255
  6
KM_SOLID
290
     1
370
    13
390
1D
  0
LAYER
  5
3D
100
AcDbSymbolTableRecord
100
AcDbLayerTableRecord
  2
01095095095PRT095DEF095DTM095PLN
 70
     0
 62
   255
  6
KM_SOLID
290
     1
370
    13
390
1D
  0
LAYER
  5
3E
100
AcDbSymbolTableRecord
100
AcDbLayerTableRecord
  2
02095ALL095AXES
 70
     0
 62
   255
  6
KM_SOLID
290
     1
370
    13
390
1D
  0
LAYER
  5
3F
100
AcDbSymbolTableRecord
100
AcDbLayerTableRecord
  2
02095095ASM095ALL095AXES
 70
     0
 62
   255
  6
KM_SOLID
290
     1
370
    13
390
1D
  0
LAYER
  5
40
100
AcDbSymbolTableRecord
100
AcDbLayerTableRecord
  2
02095095095PRT095ALL095AXES
 70
     0
 62
   255
  6
KM_SOLID
290
     1
370
    13
390
1D
  0
LAYER
  5
41
100
AcDbSymbolTableRecord
100
AcDbLayerTableRecord
  2
03095ALL095CURVES
 70
     0
 62
   255
  6
KM_SOLID
290
     1
370
    13
390
1D
  0
LAYER
  5
42
100
AcDbSymbolTableRecord
100
AcDbLayerTableRecord
  2
03095095ASM095ALL095CURVES
 70
     0
 62
   255
  6
KM_SOLID
290
     1
370
    13
390
1D
  0
LAYER
  5
43
100
AcDbSymbolTableRecord
100
AcDbLayerTableRecord
  2
03095095095PRT095ALL095CURVES
 70
     0
 62
   255
  6
KM_SOLID
290
     1
370
    13
390
1D
  0
LAYER
  5
44
100
AcDbSymbolTableRecord
100
AcDbLayerTableRecord
  2
04095ALL095DTM095PNT
 70
     0
 62
   255
  6
KM_SOLID
290
     1
370
    13
390
1D
  0
LAYER
  5
45
100
AcDbSymbolTableRecord
100
AcDbLayerTableRecord
  2
04095095ASM095ALL095DTM095PNT
 70
     0
 62
   255
  6
KM_SOLID
290
     1
370
    13
390
1D
  0
LAYER
  5
46
100
AcDbSymbolTableRecord
100
AcDbLayerTableRecord
  2
04095095095PRT095ALL095DTM095PNT
 70
     0
 62
   255
  6
KM_SOLID
290
     1
370
    13
390
1D
  0
LAYER
  5
47
100
AcDbSymbolTableRecord
100
AcDbLayerTableRecord
  2
05095ALL095DTM095CSYS
 70
     0
 62
   255
  6
KM_SOLID
290
     1
370
    13
390
1D
  0
LAYER
  5
48
100
AcDbSymbolTableRecord
100
AcDbLayerTableRecord
  2
05095095ASM095ALL095DTM095CSYS
 70
     0
 62
   255
  6
KM_SOLID
290
     1
370
    13
390
1D
  0
LAYER
  5
49
100
AcDbSymbolTableRecord
100
AcDbLayerTableRecord
  2
05095095ASM095DEF095DTM095CSYS
 70
     0
 62
   255
  6
KM_SOLID
290
     1
370
    13
390
1D
  0
LAYER
  5
4A
100
AcDbSymbolTableRecord
100
AcDbLayerTableRecord
  2
05095095095PRT095ALL095DTM095CSYS
 70
     0
 62
   255
  6
KM_SOLID
290
     1
370
    13
390
1D
  0
LAYER
  5
4B
100
AcDbSymbolTableRecord
100
AcDbLayerTableRecord
  2
05095095095PRT095DEF095DTM095CSYS
 70
     0
 62
   255
  6
KM_SOLID
290
     1
370
    13
390
1D
  0
LAYER
  5
4C
100
AcDbSymbolTableRecord
100
AcDbLayerTableRecord
  2
06095ALL095SURFS
 70
     0
 62
   255
  6
KM_SOLID
290
     1
370
    13
390
1D
  0
LAYER
  5
4D
100
AcDbSymbolTableRecord
100
AcDbLayerTableRecord
  2
06095095ASM095ALL095SURFS
 70
     0
 62
   255
  6
KM_SOLID
290
     1
370
    13
390
1D
  0
LAYER
  5
4E
100
AcDbSymbolTableRecord
100
AcDbLayerTableRecord
  2
06095095095PRT095ALL095SURFS
 70
     0
 62
   255
  6
KM_SOLID
290
     1
370
    13
390
1D
  0
LAYER
  5
4F
100
AcDbSymbolTableRecord
100
AcDbLayerTableRecord
  2
07095095ASM095ALL095SKELETONS
 70
     0
 62
   255
  6
KM_SOLID
290
     1
370
    13
390
1D
  0
LAYER
  5
50
100
AcDbSymbolTableRecord
100
AcDbLayerTableRecord
  2
0095COMPONENTS
 70
     0
 62
   255
  6
KM_SOLID
290
     1
370
    13
390
1D
  0
LAYER
  5
51
100
AcDbSymbolTableRecord
100
AcDbLayerTableRecord
  2
1095ALL095PLANES
 70
     0
 62
   255
  6
KM_SOLID
290
     1
370
    13
390
1D
  0
LAYER
  5
52
100
AcDbSymbolTableRecord
100
AcDbLayerTableRecord
  2
2095ALL095CSYS
 70
     0
 62
   255
  6
KM_SOLID
290
     1
370
    13
390
1D
  0
LAYER
  5
53
100
AcDbSymbolTableRecord
100
AcDbLayerTableRecord
  2
3095ALL095AXES
 70
     0
 62
   255
  6
KM_SOLID
290
     1
370
    13
390
1D
  0
LAYER
  5
54
100
AcDbSymbolTableRecord
100
AcDbLayerTableRecord
  2
3095ALL095SYMBOLS
 70
     0
 62
   255
  6
KM_SOLID
290
     1
370
    13
390
1D
  0
LAYER
  5
55
100
AcDbSymbolTableRecord
100
AcDbLayerTableRecord
  2
5095ALL095CURVES
 70
     0
 62
   255
  6
KM_SOLID
290
     1
370
    13
390
1D
  0
LAYER
  5
56
100
AcDbSymbolTableRecord
100
AcDbLayerTableRecord
  2
COLOR1
 70
     0
 62
   255
  6
KM_SOLID
290
     1
370
    13
390
1D
  0
LAYER
  5
57
100
AcDbSymbolTableRecord
100
AcDbLayerTableRecord
  2
COLOR2
 70
     0
 62
   255
  6
KM_SOLID
290
     1
370
    13
390
1D
  0
ENDTAB
  0
TABLE
  2
STYLE
  5
3
100
AcDbSymbolTable
 70
    23
  0
STYLE
  5
17
100
AcDbSymbolTableRecord
100
AcDbTextStyleTableRecord
  2
Standard
 70
     0
 40
0.0
 41
1.0
 50
0.0
 71
     0
 42
0.0
  3
txt
  4

  0
STYLE
  5
58
100
AcDbSymbolTableRecord
100
AcDbTextStyleTableRecord
  2
标准字
 70
     0
 40
3.5
 41
1.0
 50
0.0
 71
     0
 42
0.0
  3
romans.shx
  4
bzdft.shx
  0
STYLE
  5
59
100
AcDbSymbolTableRecord
100
AcDbTextStyleTableRecord
  2
国标宋体
 70
     0
 40
3.5
 41
1.0
 50
0.0
 71
     0
 42
0.0
  3
仿宋_GB2312
  4

  0
STYLE
  5
5A
100
AcDbSymbolTableRecord
100
AcDbTextStyleTableRecord
  2
序号标注
 70
     0
 40
5.0
 41
1.0
 50
0.0
 71
     0
 42
0.0
  3
romans.shx
  4
bzdft.shx
  0
STYLE
  5
5B
100
AcDbSymbolTableRecord
100
AcDbTextStyleTableRecord
  2
Standard035CONV1
 70
     0
 40
5.0
 41
1.0
 50
0.0
 71
     0
 42
0.0
  3
txt.shx
  4
bzdft.shx
  0
STYLE
  5
5C
100
AcDbSymbolTableRecord
100
AcDbTextStyleTableRecord
  2
标准字035CONV2
 70
     0
 40
3.5
 41
1.0
 50
0.0
 71
     0
 42
0.0
  3
romans.shx
  4
bzdft.shx
  0
STYLE
  5
5D
100
AcDbSymbolTableRecord
100
AcDbTextStyleTableRecord
  2
国标宋体035CONV3
 70
     0
 40
3.5
 41
1.0
 50
0.0
 71
     0
 42
0.0
  3
romans.shx
  4
bzdft.shx
  0
STYLE
  5
5E
100
AcDbSymbolTableRecord
100
AcDbTextStyleTableRecord
  2
序号标注035CONV4
 70
     0
 40
5.0
 41
1.0
 50
0.0
 71
     0
 42
0.0
  3
romans.shx
  4
bzdft.shx
  0
STYLE
  5
5F
100
AcDbSymbolTableRecord
100
AcDbTextStyleTableRecord
  2
STANDARD035CONV1035CONV5
 70
     0
 40
5.0
 41
0.85
 50
0.0
 71
     0
 42
0.0
  3
txt.shx
  4
bzdft.shx
  0
STYLE
  5
60
100
AcDbSymbolTableRecord
100
AcDbTextStyleTableRecord
  2
TEXTSTYLE0951035CONV2035CONV6
 70
     0
 40
5.0
 41
0.8
 50
0.0
 71
     0
 42
0.0
  3
gdt.shx
  4
bzdft.shx
  0
STYLE
  5
61
100
AcDbSymbolTableRecord
100
AcDbTextStyleTableRecord
  2
1035CONV7
 70
     0
 40
5.0
 41
1.0
 50
0.0
 71
     0
 42
0.0
  3
romans.shx
  4
bzdft.shx
  0
STYLE
  5
62
100
AcDbSymbolTableRecord
100
AcDbTextStyleTableRecord
  2
2035CONV8
 70
     0
 40
5.0
 41
1.0
 50
0.0
 71
     0
 42
0.0
  3
romans.shx
  4
bzdft.shx
  0
STYLE
  5
63
100
AcDbSymbolTableRecord
100
AcDbTextStyleTableRecord
  2
3035CONV9
 70
     0
 40
5.0
 41
1.0
 50
0.0
 71
     0
 42
0.0
  3
romans.shx
  4
bzdft.shx
  0
STYLE
  5
64
100
AcDbSymbolTableRecord
100
AcDbTextStyleTableRecord
  2
4035CONV10
 70
     0
 40
5.0
 41
1.0
 50
0.0
 71
     0
 42
0.0
  3
romans.shx
  4
bzdft.shx
  0
STYLE
  5
7E
100
AcDbSymbolTableRecord
100
AcDbTextStyleTableRecord
  2
1
 70
     0
 40
0.0
 41
1.0
 50
0.0
 71
     0
 42
5.0
  3
romans.shx
  4
bzdft.shx
  0
STYLE
  5
87
100
AcDbSymbolTableRecord
100
AcDbTextStyleTableRecord
  2
2
 70
     0
 40
0.0
 41
1.0
 50
0.0
 71
     0
 42
5.0
  3
romans.shx
  4
bzdft.shx
  0
STYLE
  5
90
100
AcDbSymbolTableRecord
100
AcDbTextStyleTableRecord
  2
3
 70
     0
 40
0.0
 41
1.0
 50
0.0
 71
     0
 42
5.0
  3
romans.shx
  4
bzdft.shx
  0
STYLE
  5
99
100
AcDbSymbolTableRecord
100
AcDbTextStyleTableRecord
  2
4
 70
     0
 40
0.0
 41
1.0
 50
0.0
 71
     0
 42
5.0
  3
romans.shx
  4
bzdft.shx
  0
STYLE
  5
20E
100
AcDbSymbolTableRecord
100
AcDbTextStyleTableRecord
  2
5
 70
     0
 40
0.0
 41
1.0
 50
0.0
 71
     0
 42
5.0
  3
romans.shx
  4
bzdft.shx
  0
STYLE
  5
219
100
AcDbSymbolTableRecord
100
AcDbTextStyleTableRecord
  2
6
 70
     0
 40
0.0
 41
1.0
 50
0.0
 71
     0
 42
5.0
  3
romans.shx
  4
bzdft.shx
  0
STYLE
  5
224
100
AcDbSymbolTableRecord
100
AcDbTextStyleTableRecord
  2
7
 70
     0
 40
0.0
 41
1.0
 50
0.0
 71
     0
 42
5.0
  3
romans.shx
  4
bzdft.shx
  0
STYLE
  5
22F
100
AcDbSymbolTableRecord
100
AcDbTextStyleTableRecord
  2
8
 70
     0
 40
0.0
 41
1.0
 50
0.0
 71
     0
 42
5.0
  3
romans.shx
  4
bzdft.shx
  0
STYLE
  5
23A
100
AcDbSymbolTableRecord
100
AcDbTextStyleTableRecord
  2
9
 70
     0
 40
0.0
 41
2.0
 50
0.0
 71
     0
 42
5.0
  3
romans.shx
  4
bzdft.shx
  0
ENDTAB
  0
TABLE
  2
VIEW
  5
5
100
AcDbSymbolTable
 70
     0
  0
ENDTAB
  0
TABLE
  2
UCS
  5
6
100
AcDbSymbolTable
 70
     0
  0
ENDTAB
  0
TABLE
  2
APPID
  5
8
100
AcDbSymbolTable
 70
     1
  0
APPID
  5
16
100
AcDbSymbolTableRecord
100
AcDbRegAppTableRecord
  2
ACAD
 70
     0
  0
ENDTAB
  0
TABLE
  2
DIMSTYLE
  5
9
100
AcDbSymbolTable
 70
    15
100
AcDbDimStyleTable
 71
     0
  0
DIMSTYLE
105
18
100
AcDbSymbolTableRecord
100
AcDbDimStyleTableRecord
  2
Standard
 70
     0
  3

  4

 40
1.0
 41
0.18
 42
0.0625
 43
0.38
 44
0.18
 45
0.0
 46
0.0
 47
0.0
 48
0.0
 71
     0
 72
     0
 73
     1
 74
     1
 75
     0
 76
     0
 77
     0
 78
     0
 79
     0
140
0.18
141
0.09
142
0.0
143
25.4
144
1.0
145
0.0
146
1.0
147
0.09
148
0.0
170
     0
171
     2
172
     0
173
     0
174
     0
175
     0
176
     0
177
     0
178
     0
179
     0
271
     4
272
     4
273
     2
274
     2
275
     0
276
     0
277
     2
278
    46
279
     0
280
     0
281
     0
282
     0
283
     1
284
     0
285
     0
286
     0
288
     0
289
     3
340
17
341
0
342
0
343
0
344
0
371
    -2
372
    -2
  0
DIMSTYLE
105
65
100
AcDbSymbolTableRecord
100
AcDbDimStyleTableRecord
  2
ISO25
 70
     0
  3

  4

 40
1.0
 41
2.5
 42
0.0625
 43
8.0
 44
1.25
 45
0.0
 46
0.0
 47
0.0
 48
0.0
 71
     0
 72
     0
 73
     0
 74
     0
 75
     0
 76
     0
 77
     1
 78
     8
 79
     0
140
2.5
141
2.5
142
0.0
143
0.03937
144
1.0
145
0.0
146
0.7
147
0.625
148
0.0
170
     0
171
     4
172
     1
173
     0
174
     0
175
     0
176
     5
177
     5
178
     5
179
     0
271
     4
272
     4
273
     8
274
     4
275
     0
276
     0
277
     6
278
    46
279
     0
280
     0
281
     0
282
     0
283
     1
284
     8
285
     0
286
     0
288
     0
289
     2
340
58
341
0
342
0
343
0
344
0
371
    -2
372
    -2
  0
DIMSTYLE
105
66
100
AcDbSymbolTableRecord
100
AcDbDimStyleTableRecord
  2
DS045GB
 70
     0
  3

  4

 40
1.0
 41
4.0
 42
0.0
 43
8.0
 44
3.0
 45
0.0
 46
0.0
 47
0.0
 48
0.0
 71
     0
 72
     0
 73
     0
 74
     0
 75
     0
 76
     0
 77
     1
 78
     8
 79
     2
140
3.5
141
2.5
142
0.0
143
0.03937
144
1.0
145
0.0
146
0.7
147
0.625
148
0.0
170
     0
171
     4
172
     1
173
     0
174
     0
175
     0
176
     5
177
     5
178
     5
179
     2
271
     2
272
     3
273
     2
274
     3
275
     1
276
     0
277
     2
278
    46
279
     0
280
     0
281
     0
282
     0
283
     0
284
     8
285
     0
286
     0
288
     0
289
     2
340
58
341
0
342
0
343
0
344
0
371
    25
372
    25
  0
DIMSTYLE
105
67
100
AcDbSymbolTableRecord
100
AcDbDimStyleTableRecord
  2
DS045COSERIAL
 70
     0
  3

  4

 40
1.0
 41
4.0
 42
0.0
 43
8.0
 44
3.0
 45
0.0
 46
0.0
 47
0.0
 48
0.0
 71
     0
 72
     0
 73
     0
 74
     0
 75
     0
 76
     0
 77
     0
 78
     8
 79
     2
140
3.5
141
2.5
142
0.0
143
0.03937
144
1.0
145
0.0
146
0.7
147
0.625
148
0.0
170
     0
171
     4
172
     1
173
     0
174
     0
175
     0
176
     5
177
     5
178
     5
179
     2
271
     2
272
     3
273
     2
274
     3
275
     1
276
     0
277
     2
278
    46
279
     0
280
     4
281
     0
282
     0
283
     0
284
     8
285
     0
286
     0
288
     0
289
     2
340
58
341
0
342
0
343
0
344
0
371
    25
372
    25
  0
DIMSTYLE
105
68
100
AcDbSymbolTableRecord
100
AcDbDimStyleTableRecord
  2
DS045GESERIAL
 70
     0
  3

  4

 40
1.0
 41
4.0
 42
0.0
 43
8.0
 44
3.0
 45
0.0
 46
0.0
 47
0.0
 48
0.0
 71
     0
 72
     0
 73
     0
 74
     0
 75
     0
 76
     0
 77
     1
 78
     8
 79
     2
140
3.5
141
2.5
142
0.0
143
0.03937
144
1.0
145
0.0
146
0.7
147
0.625
148
0.0
170
     0
171
     4
172
     1
173
     0
174
     0
175
     0
176
     5
177
     5
178
     5
179
     2
271
     2
272
     3
273
     2
274
     3
275
     1
276
     0
277
     2
278
    46
279
     0
280
     0
281
     0
282
     0
283
     0
284
     8
285
     0
286
     0
288
     0
289
     2
340
58
341
0
342
0
343
0
344
0
371
    25
372
    25
  0
DIMSTYLE
105
69
100
AcDbSymbolTableRecord
100
AcDbDimStyleTableRecord
  2
DS045ANGLE
 70
     0
  3

  4

 40
1.0
 41
4.0
 42
0.0
 43
8.0
 44
3.0
 45
0.0
 46
0.0
 47
0.0
 48
0.0
 71
     0
 72
     0
 73
     1
 74
     1
 75
     0
 76
     0
 77
     1
 78
     8
 79
     2
140
3.5
141
2.5
142
0.0
143
0.03937
144
1.0
145
0.0
146
0.7
147
0.625
148
0.0
170
     0
171
     4
172
     1
173
     0
174
     0
175
     0
176
     5
177
     5
178
     5
179
     2
271
     2
272
     3
273
     2
274
     3
275
     1
276
     0
277
     2
278
    46
279
     0
280
     0
281
     0
282
     0
283
     0
284
     8
285
     0
286
     0
288
     0
289
     2
340
58
341
0
342
0
343
0
344
0
371
    25
372
    25
  0
DIMSTYLE
105
6A
100
AcDbSymbolTableRecord
100
AcDbDimStyleTableRecord
  2
DS045KM
 70
     0
  3

  4

 40
1.0
 41
4.0
 42
0.0
 43
8.0
 44
3.0
 45
0.0
 46
0.0
 47
0.0
 48
0.0
 71
     0
 72
     0
 73
     0
 74
     0
 75
     0
 76
     0
 77
     1
 78
     8
 79
     2
140
3.5
141
2.5
142
0.0
143
0.03937
144
1.0
145
0.0
146
0.7
147
0.625
148
0.0
170
     0
171
     4
172
     1
173
     0
174
     0
175
     0
176
     5
177
     5
178
     5
179
     2
271
     2
272
     3
273
     2
274
     3
275
     0
276
     0
277
     2
278
    46
279
     0
280
     0
281
     0
282
     0
283
     0
284
     8
285
     0
286
     0
288
     1
289
     2
340
59
341
0
342
0
343
0
344
0
371
    25
372
    25
  0
DIMSTYLE
105
6B
100
AcDbSymbolTableRecord
100
AcDbDimStyleTableRecord
  2
Standard
 70
     0
  3

  4

 40
1.0
 41
0.18
 42
0.0625
 43
0.38
 44
0.18
 45
0.0
 46
0.0
 47
0.0
 48
0.0
 71
     0
 72
     0
 73
     1
 74
     1
 75
     0
 76
     0
 77
     0
 78
     0
 79
     0
140
0.18
141
0.09
142
0.0
143
25.4
144
1.0
145
0.0
146
1.0
147
0.09
148
0.0
170
     0
171
     2
172
     0
173
     0
174
     0
175
     0
176
     0
177
     0
178
     0
179
     0
271
     4
272
     4
273
     2
274
     2
275
     0
276
     0
277
     2
278
    46
279
     0
280
     0
281
     0
282
     0
283
     1
284
     0
285
     0
286
     0
288
     0
289
     3
340
5B
341
0
342
0
343
0
344
0
371
    -2
372
    -2
  0
DIMSTYLE
105
6C
100
AcDbSymbolTableRecord
100
AcDbDimStyleTableRecord
  2
ISO250
 70
     0
  3

  4

 40
1.0
 41
2.5
 42
0.0625
 43
8.0
 44
1.25
 45
0.0
 46
0.0
 47
0.0
 48
0.0
 71
     0
 72
     0
 73
     0
 74
     0
 75
     0
 76
     0
 77
     1
 78
     8
 79
     0
140
2.5
141
2.5
142
0.0
143
0.03937
144
1.0
145
0.0
146
0.7
147
0.625
148
0.0
170
     0
171
     4
172
     1
173
     0
174
     0
175
     0
176
     5
177
     5
178
     5
179
     0
271
     4
272
     4
273
     8
274
     4
275
     0
276
     0
277
     6
278
    46
279
     0
280
     0
281
     0
282
     0
283
     1
284
     8
285
     0
286
     0
288
     0
289
     3
340
5C
341
0
342
0
343
0
344
0
371
    -2
372
    -2
  0
DIMSTYLE
105
6D
100
AcDbSymbolTableRecord
100
AcDbDimStyleTableRecord
  2
DS045GB
 70
     0
  3

  4

 40
1.0
 41
4.0
 42
0.0
 43
8.0
 44
3.0
 45
0.0
 46
0.0
 47
0.0
 48
0.0
 71
     0
 72
     0
 73
     0
 74
     0
 75
     0
 76
     0
 77
     1
 78
     8
 79
     2
140
3.5
141
2.5
142
0.0
143
0.03937
144
1.0
145
0.0
146
0.7
147
0.625
148
0.0
170
     0
171
     4
172
     1
173
     0
174
     0
175
     0
176
     5
177
     5
178
     5
179
     2
271
     2
272
     3
273
     2
274
     3
275
     1
276
     0
277
     2
278
    46
279
     0
280
     0
281
     0
282
     0
283
     0
284
     8
285
     0
286
     0
288
     0
289
     3
340
5C
341
0
342
0
343
0
344
0
371
    25
372
    25
  0
DIMSTYLE
105
6E
100
AcDbSymbolTableRecord
100
AcDbDimStyleTableRecord
  2
DS045COSERIAL
 70
     0
  3

  4

 40
1.0
 41
4.0
 42
0.0
 43
8.0
 44
3.0
 45
0.0
 46
0.0
 47
0.0
 48
0.0
 71
     0
 72
     0
 73
     0
 74
     0
 75
     0
 76
     0
 77
     0
 78
     8
 79
     2
140
3.5
141
2.5
142
0.0
143
0.03937
144
1.0
145
0.0
146
0.7
147
0.625
148
0.0
170
     0
171
     4
172
     1
173
     0
174
     0
175
     0
176
     5
177
     5
178
     5
179
     2
271
     2
272
     3
273
     2
274
     3
275
     1
276
     0
277
     2
278
    46
279
     0
280
     4
281
     0
282
     0
283
     0
284
     8
285
     0
286
     0
288
     0
289
     3
340
5C
341
0
342
0
343
0
344
0
371
    25
372
    25
  0
DIMSTYLE
105
6F
100
AcDbSymbolTableRecord
100
AcDbDimStyleTableRecord
  2
DS045GESERIAL
 70
     0
  3

  4

 40
1.0
 41
4.0
 42
0.0
 43
8.0
 44
3.0
 45
0.0
 46
0.0
 47
0.0
 48
0.0
 71
     0
 72
     0
 73
     0
 74
     0
 75
     0
 76
     0
 77
     1
 78
     8
 79
     2
140
3.5
141
2.5
142
0.0
143
0.03937
144
1.0
145
0.0
146
0.7
147
0.625
148
0.0
170
     0
171
     4
172
     1
173
     0
174
     0
175
     0
176
     5
177
     5
178
     5
179
     2
271
     2
272
     3
273
     2
274
     3
275
     1
276
     0
277
     2
278
    46
279
     0
280
     0
281
     0
282
     0
283
     0
284
     8
285
     0
286
     0
288
     0
289
     3
340
5C
341
0
342
0
343
0
344
0
371
    25
372
    25
  0
DIMSTYLE
105
70
100
AcDbSymbolTableRecord
100
AcDbDimStyleTableRecord
  2
DS045ANGLE
 70
     0
  3

  4

 40
1.0
 41
4.0
 42
0.0
 43
8.0
 44
3.0
 45
0.0
 46
0.0
 47
0.0
 48
0.0
 71
     0
 72
     0
 73
     1
 74
     1
 75
     0
 76
     0
 77
     1
 78
     8
 79
     2
140
3.5
141
2.5
142
0.0
143
0.03937
144
1.0
145
0.0
146
0.7
147
0.625
148
0.0
170
     0
171
     4
172
     1
173
     0
174
     0
175
     0
176
     5
177
     5
178
     5
179
     2
271
     2
272
     3
273
     2
274
     3
275
     1
276
     0
277
     2
278
    46
279
     0
280
     0
281
     0
282
     0
283
     0
284
     8
285
     0
286
     0
288
     0
289
     3
340
5C
341
0
342
0
343
0
344
0
371
    25
372
    25
  0
DIMSTYLE
105
71
100
AcDbSymbolTableRecord
100
AcDbDimStyleTableRecord
  2
DS045KM
 70
     0
  3

  4

 40
1.0
 41
4.0
 42
0.0
 43
8.0
 44
3.0
 45
0.0
 46
0.0
 47
0.0
 48
0.0
 71
     0
 72
     0
 73
     0
 74
     0
 75
     0
 76
     0
 77
     1
 78
     8
 79
     2
140
3.5
141
2.5
142
0.0
143
0.03937
144
1.0
145
0.0
146
0.7
147
0.625
148
0.0
170
     0
171
     4
172
     1
173
     0
174
     0
175
     0
176
     5
177
     5
178
     5
179
     2
271
     2
272
     3
273
     2
274
     3
275
     0
276
     0
277
     2
278
    46
279
     0
280
     0
281
     0
282
     0
283
     0
284
     8
285
     0
286
     0
288
     1
289
     3
340
5D
341
0
342
0
343
0
344
0
371
    25
372
    25
  0
DIMSTYLE
105
72
100
AcDbSymbolTableRecord
100
AcDbDimStyleTableRecord
  2
STANDARD
 70
     0
  3

  4

 40
1.0
 41
3.5
 42
0.0625
 43
0.38
 44
0.18
 45
0.0
 46
0.0
 47
0.01
 48
0.01
 71
     1
 72
     0
 73
     0
 74
     0
 75
     0
 76
     0
 77
     1
 78
     8
 79
     0
140
3.5
141
0.09
142
0.0
143
25.4
144
1.0
145
0.0
146
1.0
147
0.09
148
0.0
170
     0
171
     2
172
     0
173
     0
174
     0
175
     0
176
     0
177
     0
178
     0
179
     0
271
     2
272
     2
273
     2
274
     2
275
     0
276
     0
277
     2
278
    46
279
     0
280
     0
281
     0
282
     0
283
     1
284
     8
285
     0
286
     0
288
     0
289
     3
340
5C
341
0
342
0
343
0
344
0
371
    -2
372
    -2
  0
ENDTAB
  0
TABLE
  2
BLOCK_RECORD
  5
1
100
AcDbSymbolTable
 70
    11
  0
BLOCK_RECORD
  5
A
100
AcDbSymbolTableRecord
100
AcDbBlockTableRecord
  2
*MODEL_SPACE
340
20
  0
BLOCK_RECORD
  5
B
100
AcDbSymbolTableRecord
100
AcDbBlockTableRecord
  2
*PAPER_SPACE
340
21
  0
BLOCK_RECORD
  5
73
100
AcDbSymbolTableRecord
100
AcDbBlockTableRecord
  2
KmSimpleDim1
340
0
  0
BLOCK_RECORD
  5
74
100
AcDbSymbolTableRecord
100
AcDbBlockTableRecord
  2
KmSimpleDim2
340
0
  0
BLOCK_RECORD
  5
75
100
AcDbSymbolTableRecord
100
AcDbBlockTableRecord
  2
KmSimpleDim3
340
0
  0
BLOCK_RECORD
  5
76
100
AcDbSymbolTableRecord
100
AcDbBlockTableRecord
  2
KmSimpleDim4
340
0
  0
BLOCK_RECORD
  5
77
100
AcDbSymbolTableRecord
100
AcDbBlockTableRecord
  2
KmLegend
340
0
102
{BLKREFS
331
23E
102
}
  0
BLOCK_RECORD
  5
207
100
AcDbSymbolTableRecord
100
AcDbBlockTableRecord
  2
KmSimpleDim1
340
0
  0
BLOCK_RECORD
  5
212
100
AcDbSymbolTableRecord
100
AcDbBlockTableRecord
  2
KmSimpleDim2
340
0
  0
BLOCK_RECORD
  5
21D
100
AcDbSymbolTableRecord
100
AcDbBlockTableRecord
  2
KmSimpleDim3
340
0
  0
BLOCK_RECORD
  5
228
100
AcDbSymbolTableRecord
100
AcDbBlockTableRecord
  2
KmSimpleDim4
340
0
  0
BLOCK_RECORD
  5
233
100
AcDbSymbolTableRecord
100
AcDbBlockTableRecord
  2
KmSimpleDim5
340
0
  0
BLOCK_RECORD
  5
23F
100
AcDbSymbolTableRecord
100
AcDbBlockTableRecord
  2
KmLegend
340
0
102
{BLKREFS
331
24A
102
}
  0
ENDTAB
  0
ENDSEC
  0
SECTION
  2
BLOCKS
  0
BLOCK
  5
D
100
AcDbEntity
  8
0
390
0
100
AcDbBlockBegin
  2
*MODEL_SPACE
 70
     0
 10
0.0
 20
0.0
 30
0.0
  3
*MODEL_SPACE
  1

  0
ENDBLK
  5
E
100
AcDbEntity
  8
0
390
0
100
AcDbBlockEnd
  0
BLOCK
  5
F
100
AcDbEntity
 67
     1
  8
0
390
0
100
AcDbBlockBegin
  2
*PAPER_SPACE
 70
     0
 10
0.0
 20
0.0
 30
0.0
  3
*PAPER_SPACE
  1

  0
ENDBLK
  5
10
100
AcDbEntity
 67
     1
  8
0
390
0
100
AcDbBlockEnd
  0
BLOCK
  5
78
100
AcDbEntity
  8
0
390
0
100
AcDbBlockBegin
  2
KmSimpleDim1
 70
     0
 10
0.0
 20
0.0
 30
0.0
  3

  1

  0
LINE
  5
79
100
AcDbEntity
  8
0
370
    25
390
0
  6
KM_SOLID
 62
     1
100
AcDbLine
 10
232.75382
 20
240.0
 30
0.0
 11
242.75382
 21
240.0
 31
0.0
  0
LINE
  5
7A
100
AcDbEntity
  8
0
370
    25
390
0
  6
KM_SOLID
 62
     1
100
AcDbLine
 10
228.75382
 20
223.152923
 30
0.0
 11
228.75382
 21
243.0
 31
0.0
  0
LINE
  5
7B
100
AcDbEntity
  8
0
370
    25
390
0
  6
KM_SOLID
 62
     1
100
AcDbLine
 10
246.75382
 20
223.152923
 30
0.0
 11
246.75382
 21
243.0
 31
0.0
  0
SOLID
  5
7C
100
AcDbEntity
  8
0
390
0
 62
     1
100
AcDbTrace
 10
232.75382
 20
239.5
 30
0.0
 11
232.75382
 21
240.5
 31
0.0
 12
228.75382
 22
240.0
 32
0.0
 13
228.75382
 23
240.0
 33
0.0
  0
SOLID
  5
7D
100
AcDbEntity
  8
0
390
0
 62
     1
100
AcDbTrace
 10
242.75382
 20
240.5
 30
0.0
 11
242.75382
 21
239.5
 31
0.0
 12
246.75382
 22
240.0
 32
0.0
 13
246.75382
 23
240.0
 33
0.0
  0
MTEXT
  5
7F
100
AcDbEntity
  8
0
390
0
 62
     2
100
AcDbMText
 10
236.087154
 20
244.125
 30
0.0
 40
3.5
 41
0.0
 71
     1
 72
     1
  1
{\W0.50;18}
  7
1
 73
     1
 44
1.0
  0
ENDBLK
  5
80
100
AcDbEntity
  8
0
390
0
100
AcDbBlockEnd
  0
BLOCK
  5
81
100
AcDbEntity
  8
0
390
0
100
AcDbBlockBegin
  2
KmSimpleDim2
 70
     0
 10
0.0
 20
0.0
 30
0.0
  3

  1

  0
LINE
  5
82
100
AcDbEntity
  8
0
370
    25
390
0
  6
KM_SOLID
 62
     1
100
AcDbLine
 10
80.882075
 20
127.0
 30
0.0
 11
165.882075
 21
127.0
 31
0.0
  0
LINE
  5
83
100
AcDbEntity
  8
0
370
    25
390
0
  6
KM_SOLID
 62
     1
100
AcDbLine
 10
76.882075
 20
140.078024
 30
0.0
 11
76.882075
 21
124.0
 31
0.0
  0
LINE
  5
84
100
AcDbEntity
  8
0
370
    25
390
0
  6
KM_SOLID
 62
     1
100
AcDbLine
 10
169.882075
 20
139.878024
 30
0.0
 11
169.882075
 21
124.0
 31
0.0
  0
SOLID
  5
85
100
AcDbEntity
  8
0
390
0
 62
     1
100
AcDbTrace
 10
80.882075
 20
126.5
 30
0.0
 11
80.882075
 21
127.5
 31
0.0
 12
76.882075
 22
127.0
 32
0.0
 13
76.882075
 23
127.0
 33
0.0
  0
SOLID
  5
86
100
AcDbEntity
  8
0
390
0
 62
     1
100
AcDbTrace
 10
165.882075
 20
127.5
 30
0.0
 11
165.882075
 21
126.5
 31
0.0
 12
169.882075
 22
127.0
 32
0.0
 13
169.882075
 23
127.0
 33
0.0
  0
MTEXT
  5
88
100
AcDbEntity
  8
0
390
0
 62
     2
100
AcDbMText
 10
121.715409
 20
131.125
 30
0.0
 40
3.5
 41
0.0
 71
     1
 72
     1
  1
{\W0.50;93}
  7
2
 73
     1
 44
1.0
  0
ENDBLK
  5
89
100
AcDbEntity
  8
0
390
0
100
AcDbBlockEnd
  0
BLOCK
  5
8A
100
AcDbEntity
  8
0
390
0
100
AcDbBlockBegin
  2
KmSimpleDim3
 70
     0
 10
0.0
 20
0.0
 30
0.0
  3

  1

  0
LINE
  5
8B
100
AcDbEntity
  8
0
370
    25
390
0
  6
KM_SOLID
 62
     1
100
AcDbLine
 10
54.0
 20
144.078024
 30
0.0
 11
54.0
 21
201.578024
 31
0.0
  0
LINE
  5
8C
100
AcDbEntity
  8
0
370
    25
390
0
  6
KM_SOLID
 62
     1
100
AcDbLine
 10
76.882075
 20
140.078024
 30
0.0
 11
51.0
 21
140.078024
 31
0.0
  0
LINE
  5
8D
100
AcDbEntity
  8
0
370
    25
390
0
  6
KM_SOLID
 62
     1
100
AcDbLine
 10
101.382075
 20
205.578024
 30
0.0
 11
51.0
 21
205.578024
 31
0.0
  0
SOLID
  5
8E
100
AcDbEntity
  8
0
390
0
 62
     1
100
AcDbTrace
 10
54.5
 20
144.078024
 30
0.0
 11
53.5
 21
144.078024
 31
0.0
 12
54.0
 22
140.078024
 32
0.0
 13
54.0
 23
140.078024
 33
0.0
  0
SOLID
  5
8F
100
AcDbEntity
  8
0
390
0
 62
     1
100
AcDbTrace
 10
53.5
 20
201.578024
 30
0.0
 11
54.5
 21
201.578024
 31
0.0
 12
54.0
 22
205.578024
 32
0.0
 13
54.0
 23
205.578024
 33
0.0
  0
MTEXT
  5
91
100
AcDbEntity
  8
0
390
0
 62
     2
100
AcDbMText
 10
49.875
 20
169.911357
 30
0.0
 40
3.5
 41
0.0
 71
     1
 72
     1
  1
{\W0.50;65.5}
  7
3
 11
0.0
 21
1.0
 31
0.0
 73
     1
 44
1.0
  0
ENDBLK
  5
92
100
AcDbEntity
  8
0
390
0
100
AcDbBlockEnd
  0
BLOCK
  5
93
100
AcDbEntity
  8
0
390
0
100
AcDbBlockBegin
  2
KmSimpleDim4
 70
     0
 10
0.0
 20
0.0
 30
0.0
  3

  1

  0
LINE
  5
94
100
AcDbEntity
  8
0
370
    25
390
0
  6
KM_SOLID
 62
     1
100
AcDbLine
 10
103.382075
 20
222.0
 30
0.0
 11
140.382075
 21
222.0
 31
0.0
  0
LINE
  5
95
100
AcDbEntity
  8
0
370
    25
390
0
  6
KM_SOLID
 62
     1
100
AcDbLine
 10
99.382075
 20
191.578024
 30
0.0
 11
99.382075
 21
225.0
 31
0.0
  0
LINE
  5
96
100
AcDbEntity
  8
0
370
    25
390
0
  6
KM_SOLID
 62
     1
100
AcDbLine
 10
144.382075
 20
191.578024
 30
0.0
 11
144.382075
 21
225.0
 31
0.0
  0
SOLID
  5
97
100
AcDbEntity
  8
0
390
0
 62
     1
100
AcDbTrace
 10
103.382075
 20
221.5
 30
0.0
 11
103.382075
 21
222.5
 31
0.0
 12
99.382075
 22
222.0
 32
0.0
 13
99.382075
 23
222.0
 33
0.0
  0
SOLID
  5
98
100
AcDbEntity
  8
0
390
0
 62
     1
100
AcDbTrace
 10
140.382075
 20
222.5
 30
0.0
 11
140.382075
 21
221.5
 31
0.0
 12
144.382075
 22
222.0
 32
0.0
 13
144.382075
 23
222.0
 33
0.0
  0
MTEXT
  5
9A
100
AcDbEntity
  8
0
390
0
 62
     2
100
AcDbMText
 10
120.215409
 20
226.125
 30
0.0
 40
3.5
 41
0.0
 71
     1
 72
     1
  1
{\W0.50;45}
  7
4
 73
     1
 44
1.0
  0
ENDBLK
  5
9B
100
AcDbEntity
  8
0
390
0
100
AcDbBlockEnd
  0
BLOCK
  5
9C
100
AcDbEntity
  8
0
390
0
100
AcDbBlockBegin
  2
KmLegend
 70
     0
 10
0.0
 20
0.0
 30
0.0
  3

  1

  0
LINE
  5
9D
100
AcDbEntity
  8
0
370
   100
390
0
  6
KM_SOLID
 62
   255
100
AcDbLine
 10
20.0
 20
0.0
 30
0.0
 11
20.0
 21
297.0
 31
0.0
  0
LINE
  5
9E
100
AcDbEntity
  8
0
370
   100
390
0
  6
KM_SOLID
 62
   255
100
AcDbLine
 10
20.0
 20
297.0
 30
0.0
 11
420.0
 21
297.0
 31
0.0
  0
LINE
  5
9F
100
AcDbEntity
  8
0
370
   100
390
0
  6
KM_SOLID
 62
   255
100
AcDbLine
 10
420.0
 20
297.0
 30
0.0
 11
420.0
 21
0.0
 31
0.0
  0
LINE
  5
A0
100
AcDbEntity
  8
0
370
   100
390
0
  6
KM_SOLID
 62
   255
100
AcDbLine
 10
420.0
 20
0.0
 30
0.0
 11
20.0
 21
0.0
 31
0.0
  0
LINE
  5
A1
100
AcDbEntity
  8
0
370
    35
390
0
  6
KM_SOLID
 62
   255
100
AcDbLine
 10
-5.0
 20
-5.0
 30
0.0
 11
-5.0
 21
302.0
 31
0.0
  0
LINE
  5
A2
100
AcDbEntity
  8
0
370
    35
390
0
  6
KM_SOLID
 62
   255
100
AcDbLine
 10
-5.0
 20
302.0
 30
0.0
 11
425.0
 21
302.0
 31
0.0
  0
LINE
  5
A3
100
AcDbEntity
  8
0
370
    35
390
0
  6
KM_SOLID
 62
   255
100
AcDbLine
 10
425.0
 20
302.0
 30
0.0
 11
425.0
 21
-5.0
 31
0.0
  0
LINE
  5
A4
100
AcDbEntity
  8
0
370
    35
390
0
  6
KM_SOLID
 62
   255
100
AcDbLine
 10
425.0
 20
-5.0
 30
0.0
 11
-5.0
 21
-5.0
 31
0.0
  0
ENDBLK
  5
A5
100
AcDbEntity
  8
0
390
0
100
AcDbBlockEnd
  0
BLOCK
  5
208
100
AcDbEntity
  8
0
390
0
100
AcDbBlockBegin
  2
KmSimpleDim1
 70
     0
 10
0.0
 20
0.0
 30
0.0
  3

  1

  0
LINE
  5
209
100
AcDbEntity
  8
图层0352
370
    25
390
0
  6
KM_SOLID
 62
     1
100
AcDbLine
 10
232.75382
 20
240.0
 30
0.0
 11
242.75382
 21
240.0
 31
0.0
  0
LINE
  5
20A
100
AcDbEntity
  8
图层0352
370
    25
390
0
  6
KM_SOLID
 62
     1
100
AcDbLine
 10
228.75382
 20
223.152923
 30
0.0
 11
228.75382
 21
243.0
 31
0.0
  0
LINE
  5
20B
100
AcDbEntity
  8
图层0352
370
    25
390
0
  6
KM_SOLID
 62
     1
100
AcDbLine
 10
246.75382
 20
223.152923
 30
0.0
 11
246.75382
 21
243.0
 31
0.0
  0
SOLID
  5
20C
100
AcDbEntity
  8
图层0352
370
    35
390
0
  6
KM_SOLID
 62
     1
100
AcDbTrace
 10
232.75382
 20
239.5
 30
0.0
 11
232.75382
 21
240.5
 31
0.0
 12
228.75382
 22
240.0
 32
0.0
 13
228.75382
 23
240.0
 33
0.0
  0
SOLID
  5
20D
100
AcDbEntity
  8
图层0352
370
    35
390
0
  6
KM_SOLID
 62
     1
100
AcDbTrace
 10
242.75382
 20
240.5
 30
0.0
 11
242.75382
 21
239.5
 31
0.0
 12
246.75382
 22
240.0
 32
0.0
 13
246.75382
 23
240.0
 33
0.0
  0
MTEXT
  5
20F
100
AcDbEntity
  8
图层0352
370
    35
390
0
  6
KM_SOLID
 62
     2
100
AcDbMText
 10
236.087154
 20
244.125
 30
0.0
 40
3.5
 41
0.0
 71
     1
 72
     1
  1
{\W0.50;18}
  7
5
 73
     1
 44
1.0
  0
ENDBLK
  5
210
100
AcDbEntity
  8
0
390
0
100
AcDbBlockEnd
  0
BLOCK
  5
213
100
AcDbEntity
  8
0
390
0
100
AcDbBlockBegin
  2
KmSimpleDim2
 70
     0
 10
0.0
 20
0.0
 30
0.0
  3

  1

  0
LINE
  5
214
100
AcDbEntity
  8
图层0352
370
    25
390
0
  6
KM_SOLID
 62
     1
100
AcDbLine
 10
80.882075
 20
127.0
 30
0.0
 11
165.882075
 21
127.0
 31
0.0
  0
LINE
  5
215
100
AcDbEntity
  8
图层0352
370
    25
390
0
  6
KM_SOLID
 62
     1
100
AcDbLine
 10
76.882075
 20
140.078024
 30
0.0
 11
76.882075
 21
124.0
 31
0.0
  0
LINE
  5
216
100
AcDbEntity
  8
图层0352
370
    25
390
0
  6
KM_SOLID
 62
     1
100
AcDbLine
 10
169.882075
 20
139.878024
 30
0.0
 11
169.882075
 21
124.0
 31
0.0
  0
SOLID
  5
217
100
AcDbEntity
  8
图层0352
370
    35
390
0
  6
KM_SOLID
 62
     1
100
AcDbTrace
 10
80.882075
 20
126.5
 30
0.0
 11
80.882075
 21
127.5
 31
0.0
 12
76.882075
 22
127.0
 32
0.0
 13
76.882075
 23
127.0
 33
0.0
  0
SOLID
  5
218
100
AcDbEntity
  8
图层0352
370
    35
390
0
  6
KM_SOLID
 62
     1
100
AcDbTrace
 10
165.882075
 20
127.5
 30
0.0
 11
165.882075
 21
126.5
 31
0.0
 12
169.882075
 22
127.0
 32
0.0
 13
169.882075
 23
127.0
 33
0.0
  0
MTEXT
  5
21A
100
AcDbEntity
  8
图层0352
370
    35
390
0
  6
KM_SOLID
 62
     2
100
AcDbMText
 10
121.715409
 20
131.125
 30
0.0
 40
3.5
 41
0.0
 71
     1
 72
     1
  1
{\W0.50;93}
  7
6
 73
     1
 44
1.0
  0
ENDBLK
  5
21B
100
AcDbEntity
  8
0
390
0
100
AcDbBlockEnd
  0
BLOCK
  5
21E
100
AcDbEntity
  8
0
390
0
100
AcDbBlockBegin
  2
KmSimpleDim3
 70
     0
 10
0.0
 20
0.0
 30
0.0
  3

  1

  0
LINE
  5
21F
100
AcDbEntity
  8
图层0352
370
    25
390
0
  6
KM_SOLID
 62
     1
100
AcDbLine
 10
54.0
 20
144.078024
 30
0.0
 11
54.0
 21
201.578024
 31
0.0
  0
LINE
  5
220
100
AcDbEntity
  8
图层0352
370
    25
390
0
  6
KM_SOLID
 62
     1
100
AcDbLine
 10
76.882075
 20
140.078024
 30
0.0
 11
51.0
 21
140.078024
 31
0.0
  0
LINE
  5
221
100
AcDbEntity
  8
图层0352
370
    25
390
0
  6
KM_SOLID
 62
     1
100
AcDbLine
 10
101.382075
 20
205.578024
 30
0.0
 11
51.0
 21
205.578024
 31
0.0
  0
SOLID
  5
222
100
AcDbEntity
  8
图层0352
370
    35
390
0
  6
KM_SOLID
 62
     1
100
AcDbTrace
 10
54.5
 20
144.078024
 30
0.0
 11
53.5
 21
144.078024
 31
0.0
 12
54.0
 22
140.078024
 32
0.0
 13
54.0
 23
140.078024
 33
0.0
  0
SOLID
  5
223
100
AcDbEntity
  8
图层0352
370
    35
390
0
  6
KM_SOLID
 62
     1
100
AcDbTrace
 10
53.5
 20
201.578024
 30
0.0
 11
54.5
 21
201.578024
 31
0.0
 12
54.0
 22
205.578024
 32
0.0
 13
54.0
 23
205.578024
 33
0.0
  0
MTEXT
  5
225
100
AcDbEntity
  8
图层0352
370
    35
390
0
  6
KM_SOLID
 62
     2
100
AcDbMText
 10
49.875
 20
169.911357
 30
0.0
 40
3.5
 41
0.0
 71
     1
 72
     1
  1
{\W0.50;65.5}
  7
7
 11
0.0
 21
1.0
 31
0.0
 73
     1
 44
1.0
  0
ENDBLK
  5
226
100
AcDbEntity
  8
0
390
0
100
AcDbBlockEnd
  0
BLOCK
  5
229
100
AcDbEntity
  8
0
390
0
100
AcDbBlockBegin
  2
KmSimpleDim4
 70
     0
 10
0.0
 20
0.0
 30
0.0
  3

  1

  0
LINE
  5
22A
100
AcDbEntity
  8
图层0352
370
    25
390
0
  6
KM_SOLID
 62
     1
100
AcDbLine
 10
103.382075
 20
222.0
 30
0.0
 11
140.382075
 21
222.0
 31
0.0
  0
LINE
  5
22B
100
AcDbEntity
  8
图层0352
370
    25
390
0
  6
KM_SOLID
 62
     1
100
AcDbLine
 10
99.382075
 20
191.578024
 30
0.0
 11
99.382075
 21
225.0
 31
0.0
  0
LINE
  5
22C
100
AcDbEntity
  8
图层0352
370
    25
390
0
  6
KM_SOLID
 62
     1
100
AcDbLine
 10
144.382075
 20
191.578024
 30
0.0
 11
144.382075
 21
225.0
 31
0.0
  0
SOLID
  5
22D
100
AcDbEntity
  8
图层0352
370
    35
390
0
  6
KM_SOLID
 62
     1
100
AcDbTrace
 10
103.382075
 20
221.5
 30
0.0
 11
103.382075
 21
222.5
 31
0.0
 12
99.382075
 22
222.0
 32
0.0
 13
99.382075
 23
222.0
 33
0.0
  0
SOLID
  5
22E
100
AcDbEntity
  8
图层0352
370
    35
390
0
  6
KM_SOLID
 62
     1
100
AcDbTrace
 10
140.382075
 20
222.5
 30
0.0
 11
140.382075
 21
221.5
 31
0.0
 12
144.382075
 22
222.0
 32
0.0
 13
144.382075
 23
222.0
 33
0.0
  0
MTEXT
  5
230
100
AcDbEntity
  8
图层0352
370
    35
390
0
  6
KM_SOLID
 62
     2
100
AcDbMText
 10
120.215409
 20
226.125
 30
0.0
 40
3.5
 41
0.0
 71
     1
 72
     1
  1
{\W0.50;45}
  7
8
 73
     1
 44
1.0
  0
ENDBLK
  5
231
100
AcDbEntity
  8
0
390
0
100
AcDbBlockEnd
  0
BLOCK
  5
234
100
AcDbEntity
  8
0
390
0
100
AcDbBlockBegin
  2
KmSimpleDim5
 70
     0
 10
0.0
 20
0.0
 30
0.0
  3

  1

  0
LINE
  5
235
100
AcDbEntity
  8
图层0352
370
    25
390
0
  6
KM_SOLID
 62
     1
100
AcDbLine
 10
108.382075
 20
133.0
 30
0.0
 11
136.382075
 21
133.0
 31
0.0
  0
LINE
  5
236
100
AcDbEntity
  8
图层0352
370
    25
390
0
  6
KM_SOLID
 62
     1
100
AcDbLine
 10
104.382075
 20
144.778024
 30
0.0
 11
104.382075
 21
130.0
 31
0.0
  0
LINE
  5
237
100
AcDbEntity
  8
图层0352
370
    25
390
0
  6
KM_SOLID
 62
     1
100
AcDbLine
 10
140.382075
 20
144.078024
 30
0.0
 11
140.382075
 21
130.0
 31
0.0
  0
SOLID
  5
238
100
AcDbEntity
  8
图层0352
370
    35
390
0
  6
KM_SOLID
 62
     1
100
AcDbTrace
 10
108.382075
 20
132.5
 30
0.0
 11
108.382075
 21
133.5
 31
0.0
 12
104.382075
 22
133.0
 32
0.0
 13
104.382075
 23
133.0
 33
0.0
  0
SOLID
  5
239
100
AcDbEntity
  8
图层0352
370
    35
390
0
  6
KM_SOLID
 62
     1
100
AcDbTrace
 10
136.382075
 20
133.5
 30
0.0
 11
136.382075
 21
132.5
 31
0.0
 12
140.382075
 22
133.0
 32
0.0
 13
140.382075
 23
133.0
 33
0.0
  0
MTEXT
  5
23B
100
AcDbEntity
  8
图层0352
370
    35
390
0
  6
KM_SOLID
 62
     2
100
AcDbMText
 10
116.548742
 20
137.125
 30
0.0
 40
3.5
 41
0.0
 71
     1
 72
     1
  1
{\W1.00;34.5}
  7
9
 73
     1
 44
1.0
  0
ENDBLK
  5
23C
100
AcDbEntity
  8
0
390
0
100
AcDbBlockEnd
  0
BLOCK
  5
240
100
AcDbEntity
  8
0
390
0
100
AcDbBlockBegin
  2
KmLegend
 70
     0
 10
0.0
 20
0.0
 30
0.0
  3

  1

  0
LINE
  5
241
100
AcDbEntity
  8
0
370
   100
390
0
  6
KM_SOLID
 62
   255
100
AcDbLine
 10
15.0
 20
-5.0
 30
0.0
 11
15.0
 21
302.0
 31
0.0
  0
LINE
  5
242
100
AcDbEntity
  8
0
370
   100
390
0
  6
KM_SOLID
 62
   255
100
AcDbLine
 10
15.0
 20
302.0
 30
0.0
 11
425.0
 21
302.0
 31
0.0
  0
LINE
  5
243
100
AcDbEntity
  8
0
370
   100
390
0
  6
KM_SOLID
 62
   255
100
AcDbLine
 10
425.0
 20
302.0
 30
0.0
 11
425.0
 21
-5.0
 31
0.0
  0
LINE
  5
244
100
AcDbEntity
  8
0
370
   100
390
0
  6
KM_SOLID
 62
   255
100
AcDbLine
 10
425.0
 20
-5.0
 30
0.0
 11
15.0
 21
-5.0
 31
0.0
  0
LINE
  5
245
100
AcDbEntity
  8
0
370
    35
390
0
  6
KM_SOLID
 62
   255
100
AcDbLine
 10
-10.0
 20
-10.0
 30
0.0
 11
-10.0
 21
307.0
 31
0.0
  0
LINE
  5
246
100
AcDbEntity
  8
0
370
    35
390
0
  6
KM_SOLID
 62
   255
100
AcDbLine
 10
-10.0
 20
307.0
 30
0.0
 11
430.0
 21
307.0
 31
0.0
  0
LINE
  5
247
100
AcDbEntity
  8
0
370
    35
390
0
  6
KM_SOLID
 62
   255
100
AcDbLine
 10
430.0
 20
307.0
 30
0.0
 11
430.0
 21
-10.0
 31
0.0
  0
LINE
  5
248
100
AcDbEntity
  8
0
370
    35
390
0
  6
KM_SOLID
 62
   255
100
AcDbLine
 10
430.0
 20
-10.0
 30
0.0
 11
-10.0
 21
-10.0
 31
0.0
  0
ENDBLK
  5
249
100
AcDbEntity
  8
0
390
0
100
AcDbBlockEnd
  0
ENDSEC
  0
SECTION
  2
ENTITIES
  0
LINE
  5
A6
100
AcDbEntity
  8
0
390
0
  6
KM_SOLID
 62
   255
100
AcDbLine
 10
0.0
 20
0.0
 30
0.0
 11
0.0
 21
297.0
 31
0.0
  0
LINE
  5
A7
100
AcDbEntity
  8
0
390
0
  6
KM_SOLID
 62
   255
100
AcDbLine
 10
0.0
 20
0.0
 30
0.0
 11
420.0
 21
0.0
 31
0.0
  0
LINE
  5
A8
100
AcDbEntity
  8
0
390
0
  6
KM_SOLID
 62
   255
100
AcDbLine
 10
0.0
 20
297.0
 30
0.0
 11
420.0
 21
297.0
 31
0.0
  0
LINE
  5
A9
100
AcDbEntity
  8
0
390
0
  6
KM_SOLID
 62
   255
100
AcDbLine
 10
420.0
 20
0.0
 30
0.0
 11
420.0
 21
297.0
 31
0.0
  0
LINE
  5
AA
100
AcDbEntity
  8
0095COMPONENTS
390
0
  6
KM_SOLID
 62
   255
100
AcDbLine
 10
76.882075
 20
140.078024
 30
0.0
 11
76.882075
 21
188.578024
 31
0.0
  0
LINE
  5
AB
100
AcDbEntity
  8
0095COMPONENTS
390
0
  6
KM_SOLID
 62
   255
100
AcDbLine
 10
85.882075
 20
176.661358
 30
0.0
 11
85.882075
 21
173.494691
 31
0.0
  0
LINE
  5
AC
100
AcDbEntity
  8
0095COMPONENTS
390
0
  6
KM_SOLID
 62
   255
100
AcDbLine
 10
85.882075
 20
172.828024
 30
0.0
 11
85.882075
 21
172.328024
 31
0.0
  0
LINE
  5
AD
100
AcDbEntity
  8
0095COMPONENTS
390
0
  6
KM_SOLID
 62
   255
100
AcDbLine
 10
85.882075
 20
170.244691
 30
0.0
 11
85.882075
 21
169.494691
 31
0.0
  0
LINE
  5
AE
100
AcDbEntity
  8
0095COMPONENTS
390
0
  6
KM_SOLID
 62
   255
100
AcDbLine
 10
85.882075
 20
168.828024
 30
0.0
 11
85.882075
 21
168.328024
 31
0.0
  0
LINE
  5
AF
100
AcDbEntity
  8
0095COMPONENTS
390
0
  6
KM_SOLID
 62
   255
100
AcDbLine
 10
85.882075
 20
165.99469
 30
0.0
 11
85.882075
 21
165.49469
 31
0.0
  0
LINE
  5
B0
100
AcDbEntity
  8
0095COMPONENTS
390
0
  6
KM_SOLID
 62
   255
100
AcDbLine
 10
85.882075
 20
163.661357
 30
0.0
 11
85.882075
 21
162.911357
 31
0.0
  0
LINE
  5
B1
100
AcDbEntity
  8
0095COMPONENTS
390
0
  6
KM_SOLID
 62
   255
100
AcDbLine
 10
86.226005
 20
178.977606
 30
0.0
 11
86.19622
 21
178.788024
 31
0.0
  0
LINE
  5
B2
100
AcDbEntity
  8
0095COMPONENTS
390
0
  6
KM_SOLID
 62
   255
100
AcDbLine
 10
85.967181
 20
162.49469
 30
0.0
 11
86.137393
 21
162.161357
 31
0.0
  0
LINE
  5
B3
100
AcDbEntity
  8
0095COMPONENTS
390
0
  6
KM_SOLID
 62
   255
100
AcDbLine
 10
86.47782
 20
162.578024
 30
0.0
 11
86.392715
 21
162.911357
 31
0.0
  0
LINE
  5
B4
100
AcDbEntity
  8
0095COMPONENTS
390
0
  6
KM_SOLID
 62
   255
100
AcDbLine
 10
85.882075
 20
162.911357
 30
0.0
 11
85.967181
 21
162.49469
 31
0.0
  0
LINE
  5
B5
100
AcDbEntity
  8
0095COMPONENTS
390
0
  6
KM_SOLID
 62
   255
100
AcDbLine
 10
86.19622
 20
178.788024
 30
0.0
 11
86.19622
 21
177.878024
 31
0.0
  0
LINE
  5
B6
100
AcDbEntity
  8
0095COMPONENTS
390
0
  6
KM_SOLID
 62
   255
100
AcDbLine
 10
86.307609
 20
173.494691
 30
0.0
 11
86.307609
 21
174.828024
 31
0.0
  0
LINE
  5
B7
100
AcDbEntity
  8
0095COMPONENTS
390
0
  6
KM_SOLID
 62
   255
100
AcDbLine
 10
86.307609
 20
175.328024
 30
0.0
 11
86.307609
 21
176.661358
 31
0.0
  0
LINE
  5
B8
100
AcDbEntity
  8
0095COMPONENTS
390
0
  6
KM_SOLID
 62
   255
100
AcDbLine
 10
86.345153
 20
178.105524
 30
0.0
 11
86.345153
 21
178.82594
 31
0.0
  0
LINE
  5
B9
100
AcDbEntity
  8
0095COMPONENTS
390
0
  6
KM_SOLID
 62
   255
100
AcDbLine
 10
86.392715
 20
162.911357
 30
0.0
 11
86.392715
 21
163.661357
 31
0.0
  0
LINE
  5
BA
100
AcDbEntity
  8
0095COMPONENTS
390
0
  6
KM_SOLID
 62
   255
100
AcDbLine
 10
86.699095
 20
168.828024
 30
0.0
 11
86.699095
 21
168.328024
 31
0.0
  0
LINE
  5
BB
100
AcDbEntity
  8
0095COMPONENTS
390
0
  6
KM_SOLID
 62
   255
100
AcDbLine
 10
86.791965
 20
178.82594
 30
0.0
 11
86.791965
 21
178.105524
 31
0.0
  0
LINE
  5
BC
100
AcDbEntity
  8
0095COMPONENTS
390
0
  6
KM_SOLID
 62
   255
100
AcDbLine
 10
86.903354
 20
164.328024
 30
0.0
 11
86.903354
 21
164.828024
 31
0.0
  0
LINE
  5
BD
100
AcDbEntity
  8
0095COMPONENTS
390
0
  6
KM_SOLID
 62
   255
100
AcDbLine
 10
86.970687
 20
178.105524
 30
0.0
 11
86.970687
 21
178.750106
 31
0.0
  0
LINE
  5
BE
100
AcDbEntity
  8
0095COMPONENTS
390
0
  6
KM_SOLID
 62
   255
100
AcDbLine
 10
87.499095
 20
168.828024
 30
0.0
 11
87.499095
 21
165.99469
 31
0.0
  0
LINE
  5
BF
100
AcDbEntity
  8
0095COMPONENTS
390
0
  6
KM_SOLID
 62
   255
100
AcDbLine
 10
87.596217
 20
177.878
 30
0.0
 11
87.596217
 21
178.105524
 31
0.0
  0
LINE
  5
C0
100
AcDbEntity
  8
0095COMPONENTS
390
0
  6
KM_SOLID
 62
   255
100
AcDbLine
 10
87.596217
 20
179.053441
 30
0.0
 11
87.596217
 21
179.277643
 31
0.0
  0
LINE
  5
C1
100
AcDbEntity
  8
0095COMPONENTS
390
0
  6
KM_SOLID
 62
   255
100
AcDbLine
 10
88.009734
 20
165.99469
 30
0.0
 11
88.009734
 21
168.328024
 31
0.0
  0
LINE
  5
C2
100
AcDbEntity
  8
0095COMPONENTS
390
0
  6
KM_SOLID
 62
   255
100
AcDbLine
 10
88.860797
 20
164.828024
 30
0.0
 11
88.860797
 21
164.328024
 31
0.0
  0
LINE
  5
C3
100
AcDbEntity
  8
0095COMPONENTS
390
0
  6
KM_SOLID
 62
   255
100
AcDbLine
 10
89.371436
 20
163.661357
 30
0.0
 11
89.371436
 21
162.911357
 31
0.0
  0
LINE
  5
C4
100
AcDbEntity
  8
0095COMPONENTS
390
0
  6
KM_SOLID
 62
   255
100
AcDbLine
 10
85.967181
 20
164.078024
 30
0.0
 11
85.882075
 21
163.661357
 31
0.0
  0
LINE
  5
C5
100
AcDbEntity
  8
0095COMPONENTS
390
0
  6
KM_SOLID
 62
   255
100
AcDbLine
 10
86.345153
 20
178.82594
 30
0.0
 11
86.374942
 21
178.93969
 31
0.0
  0
LINE
  5
C6
100
AcDbEntity
  8
0095COMPONENTS
390
0
  6
KM_SOLID
 62
   255
100
AcDbLine
 10
86.315368
 20
179.129274
 30
0.0
 11
86.226005
 21
178.977606
 31
0.0
  0
LINE
  5
C7
100
AcDbEntity
  8
0095COMPONENTS
390
0
  6
KM_SOLID
 62
   255
100
AcDbLine
 10
104.382075
 20
144.778024
 30
0.0
 11
106.882075
 21
143.078024
 31
0.0
  0
LINE
  5
C8
100
AcDbEntity
  8
0095COMPONENTS
390
0
  6
KM_SOLID
 62
   255
100
AcDbLine
 10
86.648032
 20
162.328024
 30
0.0
 11
86.47782
 21
162.578024
 31
0.0
  0
LINE
  5
C9
100
AcDbEntity
  8
0095COMPONENTS
390
0
  6
KM_SOLID
 62
   255
100
AcDbLine
 10
89.796969
 20
164.078024
 30
0.0
 11
89.626758
 21
164.411357
 31
0.0
  0
LINE
  5
CA
100
AcDbEntity
  8
0095COMPONENTS
390
0
  6
KM_SOLID
 62
   255
100
AcDbLine
 10
86.762176
 20
178.93969
 30
0.0
 11
86.791965
 21
178.82594
 31
0.0
  0
LINE
  5
CB
100
AcDbEntity
  8
0095COMPONENTS
390
0
  6
KM_SOLID
 62
   255
100
AcDbLine
 10
89.28633
 20
163.99469
 30
0.0
 11
89.371436
 21
163.661357
 31
0.0
  0
LINE
  5
CC
100
AcDbEntity
  8
0095COMPONENTS
390
0
  6
KM_SOLID
 62
   255
100
AcDbLine
 10
89.882075
 20
163.661357
 30
0.0
 11
89.796969
 21
164.078024
 31
0.0
  0
LINE
  5
CD
100
AcDbEntity
  8
0095COMPONENTS
390
0
  6
KM_SOLID
 62
   255
100
AcDbLine
 10
89.882075
 20
162.911357
 30
0.0
 11
89.882075
 21
163.661357
 31
0.0
  0
LINE
  5
CE
100
AcDbEntity
  8
0095COMPONENTS
390
0
  6
KM_SOLID
 62
   255
100
AcDbLine
 10
89.882075
 20
165.49469
 30
0.0
 11
89.882075
 21
165.99469
 31
0.0
  0
LINE
  5
CF
100
AcDbEntity
  8
0095COMPONENTS
390
0
  6
KM_SOLID
 62
   255
100
AcDbLine
 10
89.882075
 20
168.328024
 30
0.0
 11
89.882075
 21
168.828024
 31
0.0
  0
LINE
  5
D0
100
AcDbEntity
  8
0095COMPONENTS
390
0
  6
KM_SOLID
 62
   255
100
AcDbLine
 10
89.882075
 20
169.494691
 30
0.0
 11
89.882075
 21
169.994691
 31
0.0
  0
LINE
  5
D1
100
AcDbEntity
  8
0095COMPONENTS
390
0
  6
KM_SOLID
 62
   255
100
AcDbLine
 10
89.882075
 20
172.078024
 30
0.0
 11
89.882075
 21
172.828024
 31
0.0
  0
LINE
  5
D2
100
AcDbEntity
  8
0095COMPONENTS
390
0
  6
KM_SOLID
 62
   255
100
AcDbLine
 10
89.882075
 20
174.828024
 30
0.0
 11
89.882075
 21
175.328024
 31
0.0
  0
LINE
  5
D3
100
AcDbEntity
  8
0095COMPONENTS
390
0
  6
KM_SOLID
 62
   255
100
AcDbLine
 10
89.796969
 20
162.49469
 30
0.0
 11
89.882075
 21
162.911357
 31
0.0
  0
LINE
  5
D4
100
AcDbEntity
  8
0095COMPONENTS
390
0
  6
KM_SOLID
 62
   255
100
AcDbLine
 10
86.392715
 20
163.661357
 30
0.0
 11
86.47782
 21
163.99469
 31
0.0
  0
LINE
  5
D5
100
AcDbEntity
  8
0095COMPONENTS
390
0
  6
KM_SOLID
 62
   255
100
AcDbLine
 10
89.371436
 20
162.911357
 30
0.0
 11
89.28633
 21
162.578024
 31
0.0
  0
LINE
  5
D6
100
AcDbEntity
  8
0095COMPONENTS
390
0
  6
KM_SOLID
 62
   255
100
AcDbLine
 10
86.374942
 20
178.93969
 30
0.0
 11
86.434516
 21
179.015524
 31
0.0
  0
LINE
  5
D7
100
AcDbEntity
  8
0095COMPONENTS
390
0
  6
KM_SOLID
 62
   255
100
AcDbLine
 10
86.434516
 20
179.243024
 30
0.0
 11
86.315368
 21
179.129274
 31
0.0
  0
LINE
  5
D8
100
AcDbEntity
  8
0095COMPONENTS
390
0
  6
KM_SOLID
 62
   255
100
AcDbLine
 10
142.882075
 20
142.578024
 30
0.0
 11
141.382075
 21
142.278024
 31
0.0
  0
LINE
  5
D9
100
AcDbEntity
  8
0
390
0
  6
KM_SOLID
 62
   255
100
AcDbLine
 10
169.882075
 20
139.878024
 30
0.0
 11
167.977259
 21
139.878024
 31
0.0
  0
LINE
  5
DA
100
AcDbEntity
  8
0
390
0
  6
KM_SOLID
 62
   255
100
AcDbLine
 10
141.98612
 20
139.878024
 30
0.0
 11
164.882075
 21
139.878024
 31
0.0
  0
LINE
  5
DB
100
AcDbEntity
  8
0095COMPONENTS
390
0
  6
KM_SOLID
 62
   255
100
AcDbLine
 10
163.882075
 20
140.078024
 30
0.0
 11
143.382075
 21
140.078024
 31
0.0
  0
LINE
  5
DC
100
AcDbEntity
  8
0095COMPONENTS
390
0
  6
KM_SOLID
 62
   255
100
AcDbLine
 10
76.882075
 20
140.078024
 30
0.0
 11
103.417974
 21
140.078024
 31
0.0
  0
LINE
  5
DD
100
AcDbEntity
  8
0
390
0
  6
KM_SOLID
 62
   255
100
AcDbLine
 10
167.977259
 20
142.158024
 30
0.0
 11
165.130075
 21
142.158024
 31
0.0
  0
LINE
  5
DE
100
AcDbEntity
  8
0
390
0
  6
KM_SOLID
 62
   255
100
AcDbLine
 10
141.382075
 20
142.158024
 30
0.0
 11
139.70612
 21
142.158024
 31
0.0
  0
LINE
  5
DF
100
AcDbEntity
  8
0095COMPONENTS
390
0
  6
KM_SOLID
 62
   255
100
AcDbLine
 10
86.137393
 20
162.161357
 30
0.0
 11
86.47782
 21
161.828024
 31
0.0
  0
LINE
  5
E0
100
AcDbEntity
  8
0095COMPONENTS
390
0
  6
KM_SOLID
 62
   255
100
AcDbLine
 10
89.116118
 20
164.24469
 30
0.0
 11
89.28633
 21
163.99469
 31
0.0
  0
LINE
  5
E1
100
AcDbEntity
  8
0095COMPONENTS
390
0
  6
KM_SOLID
 62
   255
100
AcDbLine
 10
86.911113
 20
178.977606
 30
0.0
 11
86.851539
 21
179.129274
 31
0.0
  0
LINE
  5
E2
100
AcDbEntity
  8
0095COMPONENTS
390
0
  6
KM_SOLID
 62
   255
100
AcDbLine
 10
86.137393
 20
164.411357
 30
0.0
 11
85.967181
 21
164.078024
 31
0.0
  0
LINE
  5
E3
100
AcDbEntity
  8
0095COMPONENTS
390
0
  6
KM_SOLID
 62
   255
100
AcDbLine
 10
140.382075
 20
144.078024
 30
0.0
 11
142.882075
 21
144.078024
 31
0.0
  0
LINE
  5
E4
100
AcDbEntity
  8
0
390
0
  6
KM_SOLID
 62
   255
100
AcDbLine
 10
140.382075
 20
145.378024
 30
0.0
 11
140.182075
 21
145.378024
 31
0.0
  0
LINE
  5
E5
100
AcDbEntity
  8
0
390
0
  6
KM_SOLID
 62
   255
100
AcDbLine
 10
166.882075
 20
145.378024
 30
0.0
 11
169.882075
 21
145.378024
 31
0.0
  0
LINE
  5
E6
100
AcDbEntity
  8
0095COMPONENTS
390
0
  6
KM_SOLID
 62
   255
100
AcDbLine
 10
140.382075
 20
145.578024
 30
0.0
 11
104.382075
 21
145.578024
 31
0.0
  0
LINE
  5
E7
100
AcDbEntity
  8
0095COMPONENTS
390
0
  6
KM_SOLID
 62
   255
100
AcDbLine
 10
86.903354
 20
162.161357
 30
0.0
 11
86.648032
 21
162.328024
 31
0.0
  0
LINE
  5
E8
100
AcDbEntity
  8
0095COMPONENTS
390
0
  6
KM_SOLID
 62
   255
100
AcDbLine
 10
89.626758
 20
164.411357
 30
0.0
 11
89.28633
 21
164.74469
 31
0.0
  0
LINE
  5
E9
100
AcDbEntity
  8
0095COMPONENTS
390
0
  6
KM_SOLID
 62
   255
100
AcDbLine
 10
99.382075
 20
203.578024
 30
0.0
 11
99.382075
 21
202.578024
 31
0.0
  0
LINE
  5
EA
100
AcDbEntity
  8
0095COMPONENTS
390
0
  6
KM_SOLID
 62
   255
100
AcDbLine
 10
99.382075
 20
201.578024
 30
0.0
 11
99.382075
 21
200.578024
 31
0.0
  0
LINE
  5
EB
100
AcDbEntity
  8
0095COMPONENTS
390
0
  6
KM_SOLID
 62
   255
100
AcDbLine
 10
99.382075
 20
199.578024
 30
0.0
 11
99.382075
 21
198.578024
 31
0.0
  0
LINE
  5
EC
100
AcDbEntity
  8
0095COMPONENTS
390
0
  6
KM_SOLID
 62
   255
100
AcDbLine
 10
99.382075
 20
197.578024
 30
0.0
 11
99.382075
 21
196.578024
 31
0.0
  0
LINE
  5
ED
100
AcDbEntity
  8
0095COMPONENTS
390
0
  6
KM_SOLID
 62
   255
100
AcDbLine
 10
99.382075
 20
195.578024
 30
0.0
 11
99.382075
 21
194.578024
 31
0.0
  0
LINE
  5
EE
100
AcDbEntity
  8
0095COMPONENTS
390
0
  6
KM_SOLID
 62
   255
100
AcDbLine
 10
99.382075
 20
159.078024
 30
0.0
 11
99.382075
 21
191.578024
 31
0.0
  0
LINE
  5
EF
100
AcDbEntity
  8
0095COMPONENTS
390
0
  6
KM_SOLID
 62
   255
100
AcDbLine
 10
99.382075
 20
192.578024
 30
0.0
 11
99.382075
 21
193.578024
 31
0.0
  0
LINE
  5
F0
100
AcDbEntity
  8
0095COMPONENTS
390
0
  6
KM_SOLID
 62
   255
100
AcDbLine
 10
99.682075
 20
202.578024
 30
0.0
 11
99.682075
 21
201.578024
 31
0.0
  0
LINE
  5
F1
100
AcDbEntity
  8
0095COMPONENTS
390
0
  6
KM_SOLID
 62
   255
100
AcDbLine
 10
99.682075
 20
200.578024
 30
0.0
 11
99.682075
 21
199.578024
 31
0.0
  0
LINE
  5
F2
100
AcDbEntity
  8
0095COMPONENTS
390
0
  6
KM_SOLID
 62
   255
100
AcDbLine
 10
99.682075
 20
198.578024
 30
0.0
 11
99.682075
 21
197.578024
 31
0.0
  0
LINE
  5
F3
100
AcDbEntity
  8
0095COMPONENTS
390
0
  6
KM_SOLID
 62
   255
100
AcDbLine
 10
99.682075
 20
196.578024
 30
0.0
 11
99.682075
 21
195.578024
 31
0.0
  0
LINE
  5
F4
100
AcDbEntity
  8
0095COMPONENTS
390
0
  6
KM_SOLID
 62
   255
100
AcDbLine
 10
99.682075
 20
194.578024
 30
0.0
 11
99.682075
 21
193.578024
 31
0.0
  0
LINE
  5
F5
100
AcDbEntity
  8
0095COMPONENTS
390
0
  6
KM_SOLID
 62
   255
100
AcDbLine
 10
99.682075
 20
191.578024
 30
0.0
 11
99.682075
 21
192.578024
 31
0.0
  0
LINE
  5
F6
100
AcDbEntity
  8
0095COMPONENTS
390
0
  6
KM_SOLID
 62
   255
100
AcDbLine
 10
89.626758
 20
162.161357
 30
0.0
 11
89.796969
 21
162.49469
 31
0.0
  0
LINE
  5
F7
100
AcDbEntity
  8
0095COMPONENTS
390
0
  6
KM_SOLID
 62
   255
100
AcDbLine
 10
86.47782
 20
163.99469
 30
0.0
 11
86.648032
 21
164.24469
 31
0.0
  0
LINE
  5
F8
100
AcDbEntity
  8
0095COMPONENTS
390
0
  6
KM_SOLID
 62
   255
100
AcDbLine
 10
89.28633
 20
162.578024
 30
0.0
 11
89.116118
 21
162.328024
 31
0.0
  0
LINE
  5
F9
100
AcDbEntity
  8
0095COMPONENTS
390
0
  6
KM_SOLID
 62
   255
100
AcDbLine
 10
86.47782
 20
161.828024
 30
0.0
 11
86.818244
 21
161.661357
 31
0.0
  0
LINE
  5
FA
100
AcDbEntity
  8
0095COMPONENTS
390
0
  6
KM_SOLID
 62
   255
100
AcDbLine
 10
86.702602
 20
179.015524
 30
0.0
 11
86.762176
 21
178.93969
 31
0.0
  0
LINE
  5
FB
100
AcDbEntity
  8
0095COMPONENTS
390
0
  6
KM_SOLID
 62
   255
100
AcDbLine
 10
104.382075
 20
145.578024
 30
0.0
 11
104.382075
 21
144.778024
 31
0.0
  0
LINE
  5
FC
100
AcDbEntity
  8
0095COMPONENTS
390
0
  6
KM_SOLID
 62
   255
100
AcDbLine
 10
86.47782
 20
164.74469
 30
0.0
 11
86.137393
 21
164.411357
 31
0.0
  0
LINE
  5
FD
100
AcDbEntity
  8
0095COMPONENTS
390
0
  6
KM_SOLID
 62
   255
100
AcDbLine
 10
87.568405
 20
179.305004
 30
0.0
 11
86.911113
 21
178.977606
 31
0.0
  0
LINE
  5
FE
100
AcDbEntity
  8
0095COMPONENTS
390
0
  6
KM_SOLID
 62
   255
100
AcDbLine
 10
86.970687
 20
178.750106
 30
0.0
 11
87.596217
 21
179.053441
 31
0.0
  0
LINE
  5
FF
100
AcDbEntity
  8
0095COMPONENTS
390
0
  6
KM_SOLID
 62
   255
100
AcDbLine
 10
86.523879
 20
179.280941
 30
0.0
 11
86.434516
 21
179.243024
 31
0.0
  0
LINE
  5
100
100
AcDbEntity
  8
0095COMPONENTS
390
0
  6
KM_SOLID
 62
   255
100
AcDbLine
 10
86.434516
 20
179.015524
 30
0.0
 11
86.523879
 21
179.053441
 31
0.0
  0
LINE
  5
101
100
AcDbEntity
  8
0095COMPONENTS
390
0
  6
KM_SOLID
 62
   255
100
AcDbLine
 10
87.243777
 20
162.078024
 30
0.0
 11
86.903354
 21
162.161357
 31
0.0
  0
LINE
  5
102
100
AcDbEntity
  8
0095COMPONENTS
390
0
  6
KM_SOLID
 62
   255
100
AcDbLine
 10
88.860797
 20
164.328024
 30
0.0
 11
89.116118
 21
164.24469
 31
0.0
  0
LINE
  5
103
100
AcDbEntity
  8
0095COMPONENTS
390
0
  6
KM_SOLID
 62
   255
100
AcDbLine
 10
86.851539
 20
179.129274
 30
0.0
 11
86.732387
 21
179.243024
 31
0.0
  0
LINE
  5
104
100
AcDbEntity
  8
0095COMPONENTS
390
0
  6
KM_SOLID
 62
   255
100
AcDbLine
 10
106.882075
 20
143.078024
 30
0.0
 11
106.882075
 21
142.078024
 31
0.0
  0
LINE
  5
105
100
AcDbEntity
  8
0095COMPONENTS
390
0
  6
KM_SOLID
 62
   255
100
AcDbLine
 10
89.28633
 20
161.828024
 30
0.0
 11
89.626758
 21
162.161357
 31
0.0
  0
LINE
  5
106
100
AcDbEntity
  8
0095COMPONENTS
390
0
  6
KM_SOLID
 62
   255
100
AcDbLine
 10
89.28633
 20
172.328024
 30
0.0
 11
85.882075
 21
170.244691
 31
0.0
  0
LINE
  5
107
100
AcDbEntity
  8
0095COMPONENTS
390
0
  6
KM_SOLID
 62
   255
100
AcDbLine
 10
86.392715
 20
169.994691
 30
0.0
 11
89.882075
 21
172.078024
 31
0.0
  0
LINE
  5
108
100
AcDbEntity
  8
0095COMPONENTS
390
0
  6
KM_SOLID
 62
   255
100
AcDbLine
 10
86.818244
 20
161.661357
 30
0.0
 11
87.243777
 21
161.578024
 31
0.0
  0
LINE
  5
109
100
AcDbEntity
  8
0095COMPONENTS
390
0
  6
KM_SOLID
 62
   255
100
AcDbLine
 10
116.519941
 20
193.878024
 30
0.0
 11
114.882075
 21
189.378024
 31
0.0
  0
LINE
  5
10A
100
AcDbEntity
  8
0095COMPONENTS
390
0
  6
KM_SOLID
 62
   255
100
AcDbLine
 10
114.982075
 20
189.378024
 30
0.0
 11
116.583544
 21
193.778024
 31
0.0
  0
LINE
  5
10B
100
AcDbEntity
  8
0095COMPONENTS
390
0
  6
KM_SOLID
 62
   255
100
AcDbLine
 10
99.882075
 20
158.578024
 30
0.0
 11
143.882075
 21
158.578024
 31
0.0
  0
LINE
  5
10C
100
AcDbEntity
  8
0095COMPONENTS
390
0
  6
KM_SOLID
 62
   255
100
AcDbLine
 10
87.243777
 20
161.578024
 30
0.0
 11
88.520373
 21
161.578024
 31
0.0
  0
LINE
  5
10D
100
AcDbEntity
  8
0095COMPONENTS
390
0
  6
KM_SOLID
 62
   255
100
AcDbLine
 10
89.28633
 20
164.74469
 30
0.0
 11
88.860797
 21
164.828024
 31
0.0
  0
LINE
  5
10E
100
AcDbEntity
  8
0095COMPONENTS
390
0
  6
KM_SOLID
 62
   255
100
AcDbLine
 10
89.116118
 20
162.328024
 30
0.0
 11
88.860797
 21
162.161357
 31
0.0
  0
LINE
  5
10F
100
AcDbEntity
  8
0095COMPONENTS
390
0
  6
KM_SOLID
 62
   255
100
AcDbLine
 10
88.520373
 20
162.078024
 30
0.0
 11
87.243777
 21
162.078024
 31
0.0
  0
LINE
  5
110
100
AcDbEntity
  8
0095COMPONENTS
390
0
  6
KM_SOLID
 62
   255
100
AcDbLine
 10
85.882075
 20
165.49469
 30
0.0
 11
89.882075
 21
165.49469
 31
0.0
  0
LINE
  5
111
100
AcDbEntity
  8
0095COMPONENTS
390
0
  6
KM_SOLID
 62
   255
100
AcDbLine
 10
86.613238
 20
179.053441
 30
0.0
 11
86.702602
 21
179.015524
 31
0.0
  0
LINE
  5
112
100
AcDbEntity
  8
0095COMPONENTS
390
0
  6
KM_SOLID
 62
   255
100
AcDbLine
 10
86.732387
 20
179.243024
 30
0.0
 11
86.643027
 21
179.280941
 31
0.0
  0
LINE
  5
113
100
AcDbEntity
  8
0
390
0
  6
KM_SOLID
 62
   255
100
AcDbLine
 10
141.98612
 20
139.878024
 30
0.0
 11
138.682075
 21
143.182068
 31
0.0
  0
LINE
  5
114
100
AcDbEntity
  8
0095COMPONENTS
390
0
  6
KM_SOLID
 62
   255
100
AcDbLine
 10
141.382075
 20
142.078024
 30
0.0
 11
143.382075
 21
140.078024
 31
0.0
  0
LINE
  5
115
100
AcDbEntity
  8
0095COMPONENTS
390
0
  6
KM_SOLID
 62
   255
100
AcDbLine
 10
118.382075
 20
193.878024
 30
0.0
 11
118.382075
 21
193.778024
 31
0.0
  0
LINE
  5
116
100
AcDbEntity
  8
0095COMPONENTS
390
0
  6
KM_SOLID
 62
   255
100
AcDbLine
 10
88.945907
 20
161.661357
 30
0.0
 11
89.28633
 21
161.828024
 31
0.0
  0
LINE
  5
117
100
AcDbEntity
  8
0095COMPONENTS
390
0
  6
KM_SOLID
 62
   255
100
AcDbLine
 10
86.648032
 20
164.24469
 30
0.0
 11
86.903354
 21
164.328024
 31
0.0
  0
LINE
  5
118
100
AcDbEntity
  8
0095COMPONENTS
390
0
  6
KM_SOLID
 62
   255
100
AcDbLine
 10
88.520373
 20
161.578024
 30
0.0
 11
88.945907
 21
161.661357
 31
0.0
  0
LINE
  5
119
100
AcDbEntity
  8
0095COMPONENTS
390
0
  6
KM_SOLID
 62
   255
100
AcDbLine
 10
89.882075
 20
165.99469
 30
0.0
 11
88.009734
 21
165.99469
 31
0.0
  0
LINE
  5
11A
100
AcDbEntity
  8
0095COMPONENTS
390
0
  6
KM_SOLID
 62
   255
100
AcDbLine
 10
87.499095
 20
165.99469
 30
0.0
 11
85.882075
 21
165.99469
 31
0.0
  0
LINE
  5
11B
100
AcDbEntity
  8
0095COMPONENTS
390
0
  6
KM_SOLID
 62
   255
100
AcDbLine
 10
85.882075
 20
168.328024
 30
0.0
 11
86.699095
 21
168.328024
 31
0.0
  0
LINE
  5
11C
100
AcDbEntity
  8
0095COMPONENTS
390
0
  6
KM_SOLID
 62
   255
100
AcDbLine
 10
88.009734
 20
168.328024
 30
0.0
 11
89.882075
 21
168.328024
 31
0.0
  0
LINE
  5
11D
100
AcDbEntity
  8
0095COMPONENTS
390
0
  6
KM_SOLID
 62
   255
100
AcDbLine
 10
89.882075
 20
168.828024
 30
0.0
 11
87.499095
 21
168.828024
 31
0.0
  0
LINE
  5
11E
100
AcDbEntity
  8
0095COMPONENTS
390
0
  6
KM_SOLID
 62
   255
100
AcDbLine
 10
86.699095
 20
168.828024
 30
0.0
 11
85.882075
 21
168.828024
 31
0.0
  0
LINE
  5
11F
100
AcDbEntity
  8
0095COMPONENTS
390
0
  6
KM_SOLID
 62
   255
100
AcDbLine
 10
88.860797
 20
162.161357
 30
0.0
 11
88.520373
 21
162.078024
 31
0.0
  0
LINE
  5
120
100
AcDbEntity
  8
0095COMPONENTS
390
0
  6
KM_SOLID
 62
   255
100
AcDbLine
 10
86.903354
 20
164.828024
 30
0.0
 11
86.47782
 21
164.74469
 31
0.0
  0
LINE
  5
121
100
AcDbEntity
  8
0095COMPONENTS
390
0
  6
KM_SOLID
 62
   255
100
AcDbLine
 10
85.882075
 20
169.494691
 30
0.0
 11
89.882075
 21
169.494691
 31
0.0
  0
LINE
  5
122
100
AcDbEntity
  8
0095COMPONENTS
390
0
  6
KM_SOLID
 62
   255
100
AcDbLine
 10
89.882075
 20
169.994691
 30
0.0
 11
86.392715
 21
169.994691
 31
0.0
  0
LINE
  5
123
100
AcDbEntity
  8
0095COMPONENTS
390
0
  6
KM_SOLID
 62
   255
100
AcDbLine
 10
85.882075
 20
172.328024
 30
0.0
 11
89.28633
 21
172.328024
 31
0.0
  0
LINE
  5
124
100
AcDbEntity
  8
0095COMPONENTS
390
0
  6
KM_SOLID
 62
   255
100
AcDbLine
 10
89.882075
 20
172.828024
 30
0.0
 11
85.882075
 21
172.828024
 31
0.0
  0
LINE
  5
125
100
AcDbEntity
  8
0095COMPONENTS
390
0
  6
KM_SOLID
 62
   255
100
AcDbLine
 10
125.382075
 20
193.878024
 30
0.0
 11
125.382075
 21
193.778024
 31
0.0
  0
LINE
  5
126
100
AcDbEntity
  8
0095COMPONENTS
390
0
  6
KM_SOLID
 62
   255
100
AcDbLine
 10
85.882075
 20
173.494691
 30
0.0
 11
86.307609
 21
173.494691
 31
0.0
  0
LINE
  5
127
100
AcDbEntity
  8
0095COMPONENTS
390
0
  6
KM_SOLID
 62
   255
100
AcDbLine
 10
86.307609
 20
174.828024
 30
0.0
 11
89.882075
 21
174.828024
 31
0.0
  0
LINE
  5
128
100
AcDbEntity
  8
0095COMPONENTS
390
0
  6
KM_SOLID
 62
   255
100
AcDbLine
 10
89.882075
 20
175.328024
 30
0.0
 11
86.307609
 21
175.328024
 31
0.0
  0
LINE
  5
129
100
AcDbEntity
  8
0095COMPONENTS
390
0
  6
KM_SOLID
 62
   255
100
AcDbLine
 10
86.307609
 20
176.661358
 30
0.0
 11
85.882075
 21
176.661358
 31
0.0
  0
LINE
  5
12A
100
AcDbEntity
  8
0095COMPONENTS
390
0
  6
KM_SOLID
 62
   255
100
AcDbLine
 10
86.19622
 20
177.878024
 30
0.0
 11
87.596195
 21
177.878024
 31
0.0
  0
LINE
  5
12B
100
AcDbEntity
  8
0095COMPONENTS
390
0
  6
KM_SOLID
 62
   255
100
AcDbLine
 10
87.596217
 20
178.105524
 30
0.0
 11
86.970687
 21
178.105524
 31
0.0
  0
LINE
  5
12C
100
AcDbEntity
  8
0095COMPONENTS
390
0
  6
KM_SOLID
 62
   255
100
AcDbLine
 10
86.791965
 20
178.105524
 30
0.0
 11
86.345153
 21
178.105524
 31
0.0
  0
LINE
  5
12D
100
AcDbEntity
  8
0095COMPONENTS
390
0
  6
KM_SOLID
 62
   255
100
AcDbLine
 10
86.523879
 20
179.053441
 30
0.0
 11
86.613238
 21
179.053441
 31
0.0
  0
LINE
  5
12E
100
AcDbEntity
  8
0095COMPONENTS
390
0
  6
KM_SOLID
 62
   255
100
AcDbLine
 10
86.643027
 20
179.280941
 30
0.0
 11
86.523879
 21
179.280941
 31
0.0
  0
LINE
  5
12F
100
AcDbEntity
  8
0095COMPONENTS
390
0
  6
KM_SOLID
 62
   255
100
AcDbLine
 10
127.180606
 20
193.778024
 30
0.0
 11
128.782075
 21
189.378024
 31
0.0
  0
LINE
  5
130
100
AcDbEntity
  8
0095COMPONENTS
390
0
  6
KM_SOLID
 62
   255
100
AcDbLine
 10
128.882075
 20
189.378024
 30
0.0
 11
127.244209
 21
193.878024
 31
0.0
  0
LINE
  5
131
100
AcDbEntity
  8
0
390
0
  6
KM_SOLID
 62
   255
100
AcDbLine
 10
138.682075
 20
143.832068
 30
0.0
 11
138.682075
 21
143.182068
 31
0.0
  0
LINE
  5
132
100
AcDbEntity
  8
0
390
0
  6
KM_SOLID
 62
   255
100
AcDbLine
 10
140.182075
 20
145.378024
 30
0.0
 11
140.182075
 21
144.378024
 31
0.0
  0
LINE
  5
133
100
AcDbEntity
  8
0095COMPONENTS
390
0
  6
KM_SOLID
 62
   255
100
AcDbLine
 10
140.382075
 20
144.078024
 30
0.0
 11
140.382075
 21
145.578024
 31
0.0
  0
LINE
  5
134
100
AcDbEntity
  8
0095COMPONENTS
390
0
  6
KM_SOLID
 62
   255
100
AcDbLine
 10
141.382075
 20
142.278024
 30
0.0
 11
141.382075
 21
142.078024
 31
0.0
  0
LINE
  5
135
100
AcDbEntity
  8
0095COMPONENTS
390
0
  6
KM_SOLID
 62
   255
100
AcDbLine
 10
103.417974
 20
140.078024
 30
0.0
 11
106.882075
 21
142.078024
 31
0.0
  0
LINE
  5
136
100
AcDbEntity
  8
0095COMPONENTS
390
0
  6
KM_SOLID
 62
   255
100
AcDbLine
 10
144.784833
 20
189.378024
 30
0.0
 11
128.782075
 21
189.378024
 31
0.0
  0
LINE
  5
137
100
AcDbEntity
  8
0095COMPONENTS
390
0
  6
KM_SOLID
 62
   255
100
AcDbLine
 10
114.982075
 20
189.378024
 30
0.0
 11
98.979318
 21
189.378024
 31
0.0
  0
LINE
  5
138
100
AcDbEntity
  8
0095COMPONENTS
390
0
  6
KM_SOLID
 62
   255
100
AcDbLine
 10
77.882075
 20
189.578024
 30
0.0
 11
98.382075
 21
189.578024
 31
0.0
  0
LINE
  5
139
100
AcDbEntity
  8
0095COMPONENTS
390
0
  6
KM_SOLID
 62
   255
100
AcDbLine
 10
145.382075
 20
189.578024
 30
0.0
 11
165.882075
 21
189.578024
 31
0.0
  0
LINE
  5
13A
100
AcDbEntity
  8
0095COMPONENTS
390
0
  6
KM_SOLID
 62
   255
100
AcDbLine
 10
144.382075
 20
191.578024
 30
0.0
 11
144.082075
 21
191.578024
 31
0.0
  0
LINE
  5
13B
100
AcDbEntity
  8
0095COMPONENTS
390
0
  6
KM_SOLID
 62
   255
100
AcDbLine
 10
128.081341
 20
191.578024
 30
0.0
 11
127.981341
 21
191.578024
 31
0.0
  0
LINE
  5
13C
100
AcDbEntity
  8
0095COMPONENTS
390
0
  6
KM_SOLID
 62
   255
100
AcDbLine
 10
115.78281
 20
191.578024
 30
0.0
 11
115.68281
 21
191.578024
 31
0.0
  0
LINE
  5
13D
100
AcDbEntity
  8
0095COMPONENTS
390
0
  6
KM_SOLID
 62
   255
100
AcDbLine
 10
99.382075
 20
191.578024
 30
0.0
 11
99.682075
 21
191.578024
 31
0.0
  0
LINE
  5
13E
100
AcDbEntity
  8
0095COMPONENTS
390
0
  6
KM_SOLID
 62
   255
100
AcDbLine
 10
142.882075
 20
144.078024
 30
0.0
 11
142.882075
 21
142.578024
 31
0.0
  0
LINE
  5
13F
100
AcDbEntity
  8
0095COMPONENTS
390
0
  6
KM_SOLID
 62
   255
100
AcDbLine
 10
144.082075
 20
191.578024
 30
0.0
 11
144.082075
 21
192.578024
 31
0.0
  0
LINE
  5
140
100
AcDbEntity
  8
0095COMPONENTS
390
0
  6
KM_SOLID
 62
   255
100
AcDbLine
 10
144.082075
 20
193.578024
 30
0.0
 11
144.082075
 21
194.578024
 31
0.0
  0
LINE
  5
141
100
AcDbEntity
  8
0095COMPONENTS
390
0
  6
KM_SOLID
 62
   255
100
AcDbLine
 10
144.082075
 20
195.578024
 30
0.0
 11
144.082075
 21
196.578024
 31
0.0
  0
LINE
  5
142
100
AcDbEntity
  8
0095COMPONENTS
390
0
  6
KM_SOLID
 62
   255
100
AcDbLine
 10
144.082075
 20
197.578024
 30
0.0
 11
144.082075
 21
198.578024
 31
0.0
  0
LINE
  5
143
100
AcDbEntity
  8
0095COMPONENTS
390
0
  6
KM_SOLID
 62
   255
100
AcDbLine
 10
144.082075
 20
199.578024
 30
0.0
 11
144.082075
 21
200.578024
 31
0.0
  0
LINE
  5
144
100
AcDbEntity
  8
0095COMPONENTS
390
0
  6
KM_SOLID
 62
   255
100
AcDbLine
 10
144.082075
 20
201.578024
 30
0.0
 11
144.082075
 21
202.578024
 31
0.0
  0
LINE
  5
145
100
AcDbEntity
  8
0095COMPONENTS
390
0
  6
KM_SOLID
 62
   255
100
AcDbLine
 10
144.382075
 20
193.578024
 30
0.0
 11
144.382075
 21
192.578024
 31
0.0
  0
LINE
  5
146
100
AcDbEntity
  8
0095COMPONENTS
390
0
  6
KM_SOLID
 62
   255
100
AcDbLine
 10
144.382075
 20
159.078024
 30
0.0
 11
144.382075
 21
191.578024
 31
0.0
  0
LINE
  5
147
100
AcDbEntity
  8
0095COMPONENTS
390
0
  6
KM_SOLID
 62
   255
100
AcDbLine
 10
144.382075
 20
194.578024
 30
0.0
 11
144.382075
 21
195.578024
 31
0.0
  0
LINE
  5
148
100
AcDbEntity
  8
0095COMPONENTS
390
0
  6
KM_SOLID
 62
   255
100
AcDbLine
 10
144.382075
 20
196.578024
 30
0.0
 11
144.382075
 21
197.578024
 31
0.0
  0
LINE
  5
149
100
AcDbEntity
  8
0095COMPONENTS
390
0
  6
KM_SOLID
 62
   255
100
AcDbLine
 10
144.382075
 20
198.578024
 30
0.0
 11
144.382075
 21
199.578024
 31
0.0
  0
LINE
  5
14A
100
AcDbEntity
  8
0095COMPONENTS
390
0
  6
KM_SOLID
 62
   255
100
AcDbLine
 10
144.382075
 20
200.578024
 30
0.0
 11
144.382075
 21
201.578024
 31
0.0
  0
LINE
  5
14B
100
AcDbEntity
  8
0095COMPONENTS
390
0
  6
KM_SOLID
 62
   255
100
AcDbLine
 10
144.382075
 20
202.578024
 30
0.0
 11
144.382075
 21
203.578024
 31
0.0
  0
LINE
  5
14C
100
AcDbEntity
  8
0
390
0
  6
KM_SOLID
 62
   255
100
AcDbLine
 10
144.723694
 20
139.878024
 30
0.0
 11
144.723694
 21
140.078024
 31
0.0
  0
LINE
  5
14D
100
AcDbEntity
  8
0
390
0
  6
KM_SOLID
 62
   255
100
AcDbLine
 10
145.291113
 20
140.078024
 30
0.0
 11
145.291113
 21
139.878024
 31
0.0
  0
LINE
  5
14E
100
AcDbEntity
  8
0095COMPONENTS
390
0
  6
KM_SOLID
 62
   255
100
AcDbLine
 10
144.382075
 20
192.578024
 30
0.0
 11
144.082075
 21
192.578024
 31
0.0
  0
LINE
  5
14F
100
AcDbEntity
  8
0095COMPONENTS
390
0
  6
KM_SOLID
 62
   255
100
AcDbLine
 10
99.382075
 20
192.578024
 30
0.0
 11
99.682075
 21
192.578024
 31
0.0
  0
LINE
  5
150
100
AcDbEntity
  8
0095COMPONENTS
390
0
  6
KM_SOLID
 62
   255
100
AcDbLine
 10
144.382075
 20
193.578024
 30
0.0
 11
144.082075
 21
193.578024
 31
0.0
  0
LINE
  5
151
100
AcDbEntity
  8
0095COMPONENTS
390
0
  6
KM_SOLID
 62
   255
100
AcDbLine
 10
99.682075
 20
193.578024
 30
0.0
 11
99.382075
 21
193.578024
 31
0.0
  0
LINE
  5
152
100
AcDbEntity
  8
0095COMPONENTS
390
0
  6
KM_SOLID
 62
   255
100
AcDbLine
 10
116.583544
 20
193.778024
 30
0.0
 11
127.180606
 21
193.778024
 31
0.0
  0
LINE
  5
153
100
AcDbEntity
  8
0095COMPONENTS
390
0
  6
KM_SOLID
 62
   255
100
AcDbLine
 10
127.244209
 20
193.878024
 30
0.0
 11
116.519941
 21
193.878024
 31
0.0
  0
LINE
  5
154
100
AcDbEntity
  8
0095COMPONENTS
390
0
  6
KM_SOLID
 62
   255
100
AcDbLine
 10
99.382075
 20
194.578024
 30
0.0
 11
99.682075
 21
194.578024
 31
0.0
  0
LINE
  5
155
100
AcDbEntity
  8
0095COMPONENTS
390
0
  6
KM_SOLID
 62
   255
100
AcDbLine
 10
144.082075
 20
194.578024
 30
0.0
 11
144.382075
 21
194.578024
 31
0.0
  0
LINE
  5
156
100
AcDbEntity
  8
0095COMPONENTS
390
0
  6
KM_SOLID
 62
   255
100
AcDbLine
 10
144.382075
 20
195.578024
 30
0.0
 11
144.082075
 21
195.578024
 31
0.0
  0
LINE
  5
157
100
AcDbEntity
  8
0095COMPONENTS
390
0
  6
KM_SOLID
 62
   255
100
AcDbLine
 10
99.682075
 20
195.578024
 30
0.0
 11
99.382075
 21
195.578024
 31
0.0
  0
LINE
  5
158
100
AcDbEntity
  8
0
390
0
  6
KM_SOLID
 62
   255
100
AcDbLine
 10
147.222965
 20
140.078024
 30
0.0
 11
147.222965
 21
139.878024
 31
0.0
  0
LINE
  5
159
100
AcDbEntity
  8
0095COMPONENTS
390
0
  6
KM_SOLID
 62
   255
100
AcDbLine
 10
99.382075
 20
196.578024
 30
0.0
 11
99.682075
 21
196.578024
 31
0.0
  0
LINE
  5
15A
100
AcDbEntity
  8
0095COMPONENTS
390
0
  6
KM_SOLID
 62
   255
100
AcDbLine
 10
144.082075
 20
196.578024
 30
0.0
 11
144.382075
 21
196.578024
 31
0.0
  0
LINE
  5
15B
100
AcDbEntity
  8
0095COMPONENTS
390
0
  6
KM_SOLID
 62
   255
100
AcDbLine
 10
144.382075
 20
197.578024
 30
0.0
 11
144.082075
 21
197.578024
 31
0.0
  0
LINE
  5
15C
100
AcDbEntity
  8
0095COMPONENTS
390
0
  6
KM_SOLID
 62
   255
100
AcDbLine
 10
99.682075
 20
197.578024
 30
0.0
 11
99.382075
 21
197.578024
 31
0.0
  0
LINE
  5
15D
100
AcDbEntity
  8
0095COMPONENTS
390
0
  6
KM_SOLID
 62
   255
100
AcDbLine
 10
99.382075
 20
198.578024
 30
0.0
 11
99.682075
 21
198.578024
 31
0.0
  0
LINE
  5
15E
100
AcDbEntity
  8
0095COMPONENTS
390
0
  6
KM_SOLID
 62
   255
100
AcDbLine
 10
144.082075
 20
198.578024
 30
0.0
 11
144.382075
 21
198.578024
 31
0.0
  0
LINE
  5
15F
100
AcDbEntity
  8
0095COMPONENTS
390
0
  6
KM_SOLID
 62
   255
100
AcDbLine
 10
144.382075
 20
199.578024
 30
0.0
 11
144.082075
 21
199.578024
 31
0.0
  0
LINE
  5
160
100
AcDbEntity
  8
0095COMPONENTS
390
0
  6
KM_SOLID
 62
   255
100
AcDbLine
 10
99.682075
 20
199.578024
 30
0.0
 11
99.382075
 21
199.578024
 31
0.0
  0
LINE
  5
161
100
AcDbEntity
  8
0
390
0
  6
KM_SOLID
 62
   255
100
AcDbLine
 10
150.882075
 20
140.078024
 30
0.0
 11
150.882075
 21
139.878024
 31
0.0
  0
LINE
  5
162
100
AcDbEntity
  8
0095COMPONENTS
390
0
  6
KM_SOLID
 62
   255
100
AcDbLine
 10
99.382075
 20
200.578024
 30
0.0
 11
99.682075
 21
200.578024
 31
0.0
  0
LINE
  5
163
100
AcDbEntity
  8
0095COMPONENTS
390
0
  6
KM_SOLID
 62
   255
100
AcDbLine
 10
144.082075
 20
200.578024
 30
0.0
 11
144.382075
 21
200.578024
 31
0.0
  0
LINE
  5
164
100
AcDbEntity
  8
0095COMPONENTS
390
0
  6
KM_SOLID
 62
   255
100
AcDbLine
 10
144.382075
 20
201.578024
 30
0.0
 11
144.082075
 21
201.578024
 31
0.0
  0
LINE
  5
165
100
AcDbEntity
  8
0095COMPONENTS
390
0
  6
KM_SOLID
 62
   255
100
AcDbLine
 10
99.682075
 20
201.578024
 30
0.0
 11
99.382075
 21
201.578024
 31
0.0
  0
LINE
  5
166
100
AcDbEntity
  8
0095COMPONENTS
390
0
  6
KM_SOLID
 62
   255
100
AcDbLine
 10
99.382075
 20
202.578024
 30
0.0
 11
99.682075
 21
202.578024
 31
0.0
  0
LINE
  5
167
100
AcDbEntity
  8
0095COMPONENTS
390
0
  6
KM_SOLID
 62
   255
100
AcDbLine
 10
144.082075
 20
202.578024
 30
0.0
 11
144.382075
 21
202.578024
 31
0.0
  0
LINE
  5
168
100
AcDbEntity
  8
0
390
0
  6
KM_SOLID
 62
   255
100
AcDbLine
 10
138.682075
 20
143.832068
 30
0.0
 11
140.182075
 21
144.378024
 31
0.0
  0
LINE
  5
169
100
AcDbEntity
  8
0095COMPONENTS
390
0
  6
KM_SOLID
 62
   255
100
AcDbLine
 10
142.382075
 20
205.578024
 30
0.0
 11
101.382075
 21
205.578024
 31
0.0
  0
LINE
  5
16A
100
AcDbEntity
  8
0
390
0
  6
KM_SOLID
 62
   255
100
AcDbLine
 10
164.882075
 20
139.878024
 30
0.0
 11
164.882075
 21
141.74469
 31
0.0
  0
LINE
  5
16B
100
AcDbEntity
  8
0095COMPONENTS
390
0
  6
KM_SOLID
 62
   255
100
AcDbLine
 10
166.882075
 20
188.578024
 30
0.0
 11
166.882075
 21
145.078024
 31
0.0
  0
LINE
  5
16C
100
AcDbEntity
  8
0
390
0
  6
KM_SOLID
 62
   255
100
AcDbLine
 10
167.882075
 20
142.158024
 30
0.0
 11
167.882075
 21
145.378024
 31
0.0
  0
LINE
  5
16D
100
AcDbEntity
  8
0
390
0
  6
KM_SOLID
 62
   255
100
AcDbLine
 10
167.977259
 20
142.158024
 30
0.0
 11
167.977259
 21
139.878024
 31
0.0
  0
LINE
  5
16E
100
AcDbEntity
  8
0
390
0
  6
KM_SOLID
 62
   255
100
AcDbLine
 10
169.882075
 20
139.878024
 30
0.0
 11
169.882075
 21
145.378024
 31
0.0
  0
LINE
  5
16F
100
AcDbEntity
  8
0
390
0
  6
KM_SOLID
 62
   255
100
AcDbLine
 10
167.977259
 20
142.158024
 30
0.0
 11
169.882075
 21
143.158024
 31
0.0
  0
LINE
  5
170
100
AcDbEntity
  8
0095COMPONENTS
390
0
  6
KM_SOLID
 62
   255
100
AcDbLine
 10
166.882075
 20
145.078024
 30
0.0
 11
163.882075
 21
140.078024
 31
0.0
  0
LINE
  5
171
100
AcDbEntity
  8
0
390
0
  6
KM_SOLID
 62
   255
100
AcDbLine
 10
241.45382
 20
130.152923
 30
0.0
 11
234.05382
 21
130.152923
 31
0.0
  0
LINE
  5
172
100
AcDbEntity
  8
0
390
0
  6
KM_SOLID
 62
   255
100
AcDbLine
 10
234.00382
 20
132.152923
 30
0.0
 11
236.412374
 21
132.152923
 31
0.0
  0
LINE
  5
173
100
AcDbEntity
  8
0
390
0
  6
KM_SOLID
 62
   255
100
AcDbLine
 10
239.095343
 20
132.152923
 30
0.0
 11
241.50382
 21
132.152923
 31
0.0
  0
LINE
  5
174
100
AcDbEntity
  8
0095COMPONENTS
390
0
  6
KM_SOLID
 62
   255
100
AcDbLine
 10
246.75382
 20
133.152923
 30
0.0
 11
228.75382
 21
133.152923
 31
0.0
  0
LINE
  5
175
100
AcDbEntity
  8
0095COMPONENTS
390
0
  6
KM_SOLID
 62
   255
100
AcDbLine
 10
241.55382
 20
133.452923
 30
0.0
 11
233.95382
 21
133.452923
 31
0.0
  0
LINE
  5
176
100
AcDbEntity
  8
0095COMPONENTS
390
0
  6
KM_SOLID
 62
   255
100
AcDbLine
 10
246.75382
 20
134.152923
 30
0.0
 11
241.55382
 21
134.152923
 31
0.0
  0
LINE
  5
177
100
AcDbEntity
  8
0095COMPONENTS
390
0
  6
KM_SOLID
 62
   255
100
AcDbLine
 10
233.95382
 20
134.152923
 30
0.0
 11
228.75382
 21
134.152923
 31
0.0
  0
LINE
  5
178
100
AcDbEntity
  8
0095COMPONENTS
390
0
  6
KM_SOLID
 62
   255
100
AcDbLine
 10
230.718008
 20
197.961434
 30
0.0
 11
230.983258
 21
198.089093
 31
0.0
  0
LINE
  5
179
100
AcDbEntity
  8
0095COMPONENTS
390
0
  6
KM_SOLID
 62
   255
100
AcDbLine
 10
239.35382
 20
152.052923
 30
0.0
 11
237.15382
 21
152.052923
 31
0.0
  0
LINE
  5
17A
100
AcDbEntity
  8
0095COMPONENTS
390
0
  6
KM_SOLID
 62
   255
100
AcDbLine
 10
237.15382
 20
152.152923
 30
0.0
 11
239.05382
 21
152.152923
 31
0.0
  0
LINE
  5
17B
100
AcDbEntity
  8
0095COMPONENTS
390
0
  6
KM_SOLID
 62
   255
100
AcDbLine
 10
239.05382
 20
153.652923
 30
0.0
 11
239.35382
 21
153.652923
 31
0.0
  0
LINE
  5
17C
100
AcDbEntity
  8
0095COMPONENTS
390
0
  6
KM_SOLID
 62
   255
100
AcDbLine
 10
246.75382
 20
154.652923
 30
0.0
 11
239.35382
 21
154.652923
 31
0.0
  0
LINE
  5
17D
100
AcDbEntity
  8
0095COMPONENTS
390
0
  6
KM_SOLID
 62
   255
100
AcDbLine
 10
237.15382
 20
154.652923
 30
0.0
 11
228.75382
 21
154.652923
 31
0.0
  0
LINE
  5
17E
100
AcDbEntity
  8
0095COMPONENTS
390
0
  6
KM_SOLID
 62
   255
100
AcDbLine
 10
230.452758
 20
197.706115
 30
0.0
 11
230.718008
 21
197.961434
 31
0.0
  0
LINE
  5
17F
100
AcDbEntity
  8
0095COMPONENTS
390
0
  6
KM_SOLID
 62
   255
100
AcDbLine
 10
231.049571
 20
197.706115
 30
0.0
 11
230.850633
 21
197.578455
 31
0.0
  0
LINE
  5
180
100
AcDbEntity
  8
0095COMPONENTS
390
0
  6
KM_SOLID
 62
   255
100
AcDbLine
 10
232.176883
 20
195.599731
 30
0.0
 11
232.375821
 21
195.727391
 31
0.0
  0
LINE
  5
181
100
AcDbEntity
  8
0095COMPONENTS
390
0
  6
KM_SOLID
 62
   255
100
AcDbLine
 10
232.508445
 20
195.344412
 30
0.0
 11
232.243195
 21
195.216753
 31
0.0
  0
LINE
  5
182
100
AcDbEntity
  8
0095COMPONENTS
390
0
  6
KM_SOLID
 62
   255
100
AcDbLine
 10
246.75382
 20
155.652923
 30
0.0
 11
228.75382
 21
155.652923
 31
0.0
  0
LINE
  5
183
100
AcDbEntity
  8
0095COMPONENTS
390
0
  6
KM_SOLID
 62
   255
100
AcDbLine
 10
228.75382
 20
156.152923
 30
0.0
 11
228.95382
 21
156.152923
 31
0.0
  0
LINE
  5
184
100
AcDbEntity
  8
0095COMPONENTS
390
0
  6
KM_SOLID
 62
   255
100
AcDbLine
 10
246.65382
 20
156.152923
 30
0.0
 11
246.75382
 21
156.152923
 31
0.0
  0
LINE
  5
185
100
AcDbEntity
  8
0095COMPONENTS
390
0
  6
KM_SOLID
 62
   255
100
AcDbLine
 10
246.65382
 20
157.652923
 30
0.0
 11
228.95382
 21
157.652923
 31
0.0
  0
LINE
  5
186
100
AcDbEntity
  8
0095COMPONENTS
390
0
  6
KM_SOLID
 62
   255
100
AcDbLine
 10
230.320133
 20
197.450795
 30
0.0
 11
230.452758
 21
197.706115
 31
0.0
  0
LINE
  5
187
100
AcDbEntity
  8
0095COMPONENTS
390
0
  6
KM_SOLID
 62
   255
100
AcDbLine
 10
230.850633
 20
197.578455
 30
0.0
 11
230.718008
 21
197.386966
 31
0.0
  0
LINE
  5
188
100
AcDbEntity
  8
0095COMPONENTS
390
0
  6
KM_SOLID
 62
   255
100
AcDbLine
 10
232.773695
 20
195.599731
 30
0.0
 11
232.508445
 21
195.344412
 31
0.0
  0
LINE
  5
189
100
AcDbEntity
  8
0095COMPONENTS
390
0
  6
KM_SOLID
 62
   255
100
AcDbLine
 10
230.25382
 20
197.131646
 30
0.0
 11
230.320133
 21
197.450795
 31
0.0
  0
LINE
  5
18A
100
AcDbEntity
  8
0095COMPONENTS
390
0
  6
KM_SOLID
 62
   255
100
AcDbLine
 10
230.718008
 20
197.386966
 30
0.0
 11
230.651695
 21
197.131646
 31
0.0
  0
LINE
  5
18B
100
AcDbEntity
  8
0095COMPONENTS
390
0
  6
KM_SOLID
 62
   255
100
AcDbLine
 10
232.375821
 20
195.727391
 30
0.0
 11
232.442132
 21
195.91888
 31
0.0
  0
LINE
  5
18C
100
AcDbEntity
  8
0095COMPONENTS
390
0
  6
KM_SOLID
 62
   255
100
AcDbLine
 10
228.75382
 20
133.152923
 30
0.0
 11
228.75382
 21
223.152923
 31
0.0
  0
LINE
  5
18D
100
AcDbEntity
  8
0095COMPONENTS
390
0
  6
KM_SOLID
 62
   255
100
AcDbLine
 10
228.95382
 20
155.652923
 30
0.0
 11
228.95382
 21
200.652923
 31
0.0
  0
LINE
  5
18E
100
AcDbEntity
  8
0095COMPONENTS
390
0
  6
KM_SOLID
 62
   255
100
AcDbLine
 10
230.25382
 20
196.1742
 30
0.0
 11
230.25382
 21
197.131646
 31
0.0
  0
LINE
  5
18F
100
AcDbEntity
  8
0095COMPONENTS
390
0
  6
KM_SOLID
 62
   255
100
AcDbLine
 10
230.651695
 20
197.131646
 30
0.0
 11
230.651695
 21
196.1742
 31
0.0
  0
LINE
  5
190
100
AcDbEntity
  8
0095COMPONENTS
390
0
  6
KM_SOLID
 62
   255
100
AcDbLine
 10
232.840008
 20
195.91888
 30
0.0
 11
232.773695
 21
195.599731
 31
0.0
  0
LINE
  5
191
100
AcDbEntity
  8
0
390
0
  6
KM_SOLID
 62
   255
100
AcDbLine
 10
232.05382
 20
132.152923
 30
0.0
 11
232.05382
 21
133.152923
 31
0.0
  0
LINE
  5
192
100
AcDbEntity
  8
0095COMPONENTS
390
0
  6
KM_SOLID
 62
   255
100
AcDbLine
 10
233.370508
 20
195.152923
 30
0.0
 11
233.370508
 21
198.152923
 31
0.0
  0
LINE
  5
193
100
AcDbEntity
  8
0095COMPONENTS
390
0
  6
KM_SOLID
 62
   255
100
AcDbLine
 10
233.768383
 20
198.152923
 30
0.0
 11
233.768383
 21
196.940157
 31
0.0
  0
LINE
  5
194
100
AcDbEntity
  8
0095COMPONENTS
390
0
  6
KM_SOLID
 62
   255
100
AcDbLine
 10
233.768383
 20
196.557178
 30
0.0
 11
233.768383
 21
195.152923
 31
0.0
  0
LINE
  5
195
100
AcDbEntity
  8
0095COMPONENTS
390
0
  6
KM_SOLID
 62
   255
100
AcDbLine
 10
233.95382
 20
133.152923
 30
0.0
 11
233.95382
 21
140.103308
 31
0.0
  0
LINE
  5
196
100
AcDbEntity
  8
0095COMPONENTS
390
0
  6
KM_SOLID
 62
   255
100
AcDbLine
 10
233.95382
 20
216.202538
 30
0.0
 11
233.95382
 21
223.152923
 31
0.0
  0
LINE
  5
197
100
AcDbEntity
  8
0
390
0
  6
KM_SOLID
 62
   255
100
AcDbLine
 10
234.00382
 20
133.152923
 30
0.0
 11
234.00382
 21
132.152923
 31
0.0
  0
LINE
  5
198
100
AcDbEntity
  8
0095COMPONENTS
390
0
  6
KM_SOLID
 62
   255
100
AcDbLine
 10
230.320133
 20
195.855051
 30
0.0
 11
230.25382
 21
196.1742
 31
0.0
  0
LINE
  5
199
100
AcDbEntity
  8
0095COMPONENTS
390
0
  6
KM_SOLID
 62
   255
100
AcDbLine
 10
235.625133
 20
195.152923
 30
0.0
 11
235.625133
 21
196.557178
 31
0.0
  0
LINE
  5
19A
100
AcDbEntity
  8
0095COMPONENTS
390
0
  6
KM_SOLID
 62
   255
100
AcDbLine
 10
235.625133
 20
196.940157
 30
0.0
 11
235.625133
 21
198.152923
 31
0.0
  0
LINE
  5
19B
100
AcDbEntity
  8
0095COMPONENTS
390
0
  6
KM_SOLID
 62
   255
100
AcDbLine
 10
236.023008
 20
198.152923
 30
0.0
 11
236.023008
 21
195.152923
 31
0.0
  0
LINE
  5
19C
100
AcDbEntity
  8
0095COMPONENTS
390
0
  6
KM_SOLID
 62
   255
100
AcDbLine
 10
236.553508
 20
195.152923
 30
0.0
 11
236.553508
 21
198.152923
 31
0.0
  0
LINE
  5
19D
100
AcDbEntity
  8
0095COMPONENTS
390
0
  6
KM_SOLID
 62
   255
100
AcDbLine
 10
236.951383
 20
197.769944
 30
0.0
 11
236.951383
 21
195.152923
 31
0.0
  0
LINE
  5
19E
100
AcDbEntity
  8
0095COMPONENTS
390
0
  6
KM_SOLID
 62
   255
100
AcDbLine
 10
237.15382
 20
152.052923
 30
0.0
 11
237.15382
 21
155.652923
 31
0.0
  0
LINE
  5
19F
100
AcDbEntity
  8
0095COMPONENTS
390
0
  6
KM_SOLID
 62
   255
100
AcDbLine
 10
237.15382
 20
201.652923
 30
0.0
 11
237.15382
 21
204.252923
 31
0.0
  0
LINE
  5
1A0
100
AcDbEntity
  8
0095COMPONENTS
390
0
  6
KM_SOLID
 62
   255
100
AcDbLine
 10
230.651695
 20
196.1742
 30
0.0
 11
230.718008
 21
195.91888
 31
0.0
  0
LINE
  5
1A1
100
AcDbEntity
  8
0095COMPONENTS
390
0
  6
KM_SOLID
 62
   255
100
AcDbLine
 10
232.773695
 20
197.706115
 30
0.0
 11
232.840008
 21
197.386966
 31
0.0
  0
LINE
  5
1A2
100
AcDbEntity
  8
0095COMPONENTS
390
0
  6
KM_SOLID
 62
   255
100
AcDbLine
 10
238.808133
 20
195.599731
 30
0.0
 11
238.808133
 21
198.152923
 31
0.0
  0
LINE
  5
1A3
100
AcDbEntity
  8
0095COMPONENTS
390
0
  6
KM_SOLID
 62
   255
100
AcDbLine
 10
239.05382
 20
152.152923
 30
0.0
 11
239.05382
 21
155.652923
 31
0.0
  0
LINE
  5
1A4
100
AcDbEntity
  8
0095COMPONENTS
390
0
  6
KM_SOLID
 62
   255
100
AcDbLine
 10
239.05382
 20
200.652923
 30
0.0
 11
239.05382
 21
204.152923
 31
0.0
  0
LINE
  5
1A5
100
AcDbEntity
  8
0095COMPONENTS
390
0
  6
KM_SOLID
 62
   255
100
AcDbLine
 10
239.206008
 20
198.152923
 30
0.0
 11
239.206008
 21
195.152923
 31
0.0
  0
LINE
  5
1A6
100
AcDbEntity
  8
0095COMPONENTS
390
0
  6
KM_SOLID
 62
   255
100
AcDbLine
 10
239.35382
 20
152.052923
 30
0.0
 11
239.35382
 21
155.652923
 31
0.0
  0
LINE
  5
1A7
100
AcDbEntity
  8
0095COMPONENTS
390
0
  6
KM_SOLID
 62
   255
100
AcDbLine
 10
239.35382
 20
200.652923
 30
0.0
 11
239.35382
 21
204.252923
 31
0.0
  0
LINE
  5
1A8
100
AcDbEntity
  8
0095COMPONENTS
390
0
  6
KM_SOLID
 62
   255
100
AcDbLine
 10
239.736508
 20
197.833774
 30
0.0
 11
239.736508
 21
198.152923
 31
0.0
  0
LINE
  5
1A9
100
AcDbEntity
  8
0095COMPONENTS
390
0
  6
KM_SOLID
 62
   255
100
AcDbLine
 10
240.797508
 20
195.152923
 30
0.0
 11
240.797508
 21
197.833774
 31
0.0
  0
LINE
  5
1AA
100
AcDbEntity
  8
0095COMPONENTS
390
0
  6
KM_SOLID
 62
   255
100
AcDbLine
 10
241.195383
 20
197.833774
 30
0.0
 11
241.195383
 21
195.152923
 31
0.0
  0
LINE
  5
1AB
100
AcDbEntity
  8
0095COMPONENTS
390
0
  6
KM_SOLID
 62
   255
100
AcDbLine
 10
230.452758
 20
195.599731
 30
0.0
 11
230.320133
 21
195.855051
 31
0.0
  0
LINE
  5
1AC
100
AcDbEntity
  8
0095COMPONENTS
390
0
  6
KM_SOLID
 62
   255
100
AcDbLine
 10
232.442132
 20
197.386966
 30
0.0
 11
232.375821
 21
197.578455
 31
0.0
  0
LINE
  5
1AD
100
AcDbEntity
  8
0
390
0
  6
KM_SOLID
 62
   255
100
AcDbLine
 10
241.50382
 20
132.152923
 30
0.0
 11
241.50382
 21
133.152923
 31
0.0
  0
LINE
  5
1AE
100
AcDbEntity
  8
0095COMPONENTS
390
0
  6
KM_SOLID
 62
   255
100
AcDbLine
 10
241.55382
 20
133.152923
 30
0.0
 11
241.55382
 21
140.103308
 31
0.0
  0
LINE
  5
1AF
100
AcDbEntity
  8
0095COMPONENTS
390
0
  6
KM_SOLID
 62
   255
100
AcDbLine
 10
241.55382
 20
216.202538
 30
0.0
 11
241.55382
 21
223.152923
 31
0.0
  0
LINE
  5
1B0
100
AcDbEntity
  8
0095COMPONENTS
390
0
  6
KM_SOLID
 62
   255
100
AcDbLine
 10
242.256383
 20
198.152923
 30
0.0
 11
242.256383
 21
197.833774
 31
0.0
  0
LINE
  5
1B1
100
AcDbEntity
  8
0095COMPONENTS
390
0
  6
KM_SOLID
 62
   255
100
AcDbLine
 10
242.55382
 20
198.652923
 30
0.0
 11
242.55382
 21
196.852923
 31
0.0
  0
LINE
  5
1B2
100
AcDbEntity
  8
0095COMPONENTS
390
0
  6
KM_SOLID
 62
   255
100
AcDbLine
 10
242.55382
 20
195.152923
 30
0.0
 11
242.55382
 21
196.652923
 31
0.0
  0
LINE
  5
1B3
100
AcDbEntity
  8
0
390
0
  6
KM_SOLID
 62
   255
100
AcDbLine
 10
243.45382
 20
133.152923
 30
0.0
 11
243.45382
 21
132.152923
 31
0.0
  0
LINE
  5
1B4
100
AcDbEntity
  8
0095COMPONENTS
390
0
  6
KM_SOLID
 62
   255
100
AcDbLine
 10
230.718008
 20
195.91888
 30
0.0
 11
230.850633
 21
195.727391
 31
0.0
  0
LINE
  5
1B5
100
AcDbEntity
  8
0095COMPONENTS
390
0
  6
KM_SOLID
 62
   255
100
AcDbLine
 10
244.75382
 20
198.652923
 30
0.0
 11
244.75382
 21
196.852923
 31
0.0
  0
LINE
  5
1B6
100
AcDbEntity
  8
0095COMPONENTS
390
0
  6
KM_SOLID
 62
   255
100
AcDbLine
 10
245.35382
 20
196.652923
 30
0.0
 11
245.35382
 21
195.152923
 31
0.0
  0
LINE
  5
1B7
100
AcDbEntity
  8
0095COMPONENTS
390
0
  6
KM_SOLID
 62
   255
100
AcDbLine
 10
246.65382
 20
200.652923
 30
0.0
 11
246.65382
 21
155.652923
 31
0.0
  0
LINE
  5
1B8
100
AcDbEntity
  8
0095COMPONENTS
390
0
  6
KM_SOLID
 62
   255
100
AcDbLine
 10
246.75382
 20
223.152923
 30
0.0
 11
246.75382
 21
133.152923
 31
0.0
  0
LINE
  5
1B9
100
AcDbEntity
  8
0095COMPONENTS
390
0
  6
KM_SOLID
 62
   255
100
AcDbLine
 10
230.718008
 20
195.344412
 30
0.0
 11
230.452758
 21
195.599731
 31
0.0
  0
LINE
  5
1BA
100
AcDbEntity
  8
0095COMPONENTS
390
0
  6
KM_SOLID
 62
   255
100
AcDbLine
 10
230.850633
 20
195.727391
 30
0.0
 11
231.049571
 21
195.599731
 31
0.0
  0
LINE
  5
1BB
100
AcDbEntity
  8
0095COMPONENTS
390
0
  6
KM_SOLID
 62
   255
100
AcDbLine
 10
232.508445
 20
197.961434
 30
0.0
 11
232.773695
 21
197.706115
 31
0.0
  0
LINE
  5
1BC
100
AcDbEntity
  8
0095COMPONENTS
390
0
  6
KM_SOLID
 62
   255
100
AcDbLine
 10
237.150321
 20
198.152923
 30
0.0
 11
238.808133
 21
195.599731
 31
0.0
  0
LINE
  5
1BD
100
AcDbEntity
  8
0095COMPONENTS
390
0
  6
KM_SOLID
 62
   255
100
AcDbLine
 10
238.609195
 20
195.152923
 30
0.0
 11
236.951383
 21
197.769944
 31
0.0
  0
LINE
  5
1BE
100
AcDbEntity
  8
0095COMPONENTS
390
0
  6
KM_SOLID
 62
   255
100
AcDbLine
 10
230.983258
 20
195.216753
 30
0.0
 11
230.718008
 21
195.344412
 31
0.0
  0
LINE
  5
1BF
100
AcDbEntity
  8
0095COMPONENTS
390
0
  6
KM_SOLID
 62
   255
100
AcDbLine
 10
232.375821
 20
197.578455
 30
0.0
 11
232.176883
 21
197.706115
 31
0.0
  0
LINE
  5
1C0
100
AcDbEntity
  8
0095COMPONENTS
390
0
  6
KM_SOLID
 62
   255
100
AcDbLine
 10
232.243195
 20
195.216753
 30
0.0
 11
231.911633
 21
195.152923
 31
0.0
  0
LINE
  5
1C1
100
AcDbEntity
  8
0095COMPONENTS
390
0
  6
KM_SOLID
 62
   255
100
AcDbLine
 10
245.35382
 20
195.152923
 30
0.0
 11
242.55382
 21
195.152923
 31
0.0
  0
LINE
  5
1C2
100
AcDbEntity
  8
0095COMPONENTS
390
0
  6
KM_SOLID
 62
   255
100
AcDbLine
 10
241.195383
 20
195.152923
 30
0.0
 11
240.797508
 21
195.152923
 31
0.0
  0
LINE
  5
1C3
100
AcDbEntity
  8
0095COMPONENTS
390
0
  6
KM_SOLID
 62
   255
100
AcDbLine
 10
239.206008
 20
195.152923
 30
0.0
 11
238.609195
 21
195.152923
 31
0.0
  0
LINE
  5
1C4
100
AcDbEntity
  8
0095COMPONENTS
390
0
  6
KM_SOLID
 62
   255
100
AcDbLine
 10
236.951383
 20
195.152923
 30
0.0
 11
236.553508
 21
195.152923
 31
0.0
  0
LINE
  5
1C5
100
AcDbEntity
  8
0095COMPONENTS
390
0
  6
KM_SOLID
 62
   255
100
AcDbLine
 10
236.023008
 20
195.152923
 30
0.0
 11
235.625133
 21
195.152923
 31
0.0
  0
LINE
  5
1C6
100
AcDbEntity
  8
0095COMPONENTS
390
0
  6
KM_SOLID
 62
   255
100
AcDbLine
 10
233.768383
 20
195.152923
 30
0.0
 11
233.370508
 21
195.152923
 31
0.0
  0
LINE
  5
1C7
100
AcDbEntity
  8
0095COMPONENTS
390
0
  6
KM_SOLID
 62
   255
100
AcDbLine
 10
231.911633
 20
195.152923
 30
0.0
 11
231.314821
 21
195.152923
 31
0.0
  0
LINE
  5
1C8
100
AcDbEntity
  8
0095COMPONENTS
390
0
  6
KM_SOLID
 62
   255
100
AcDbLine
 10
231.314821
 20
195.535902
 30
0.0
 11
231.911633
 21
195.535902
 31
0.0
  0
LINE
  5
1C9
100
AcDbEntity
  8
0095COMPONENTS
390
0
  6
KM_SOLID
 62
   255
100
AcDbLine
 10
232.442132
 20
195.91888
 30
0.0
 11
232.840008
 21
195.91888
 31
0.0
  0
LINE
  5
1CA
100
AcDbEntity
  8
0095COMPONENTS
390
0
  6
KM_SOLID
 62
   255
100
AcDbLine
 10
231.314821
 20
195.152923
 30
0.0
 11
230.983258
 21
195.216753
 31
0.0
  0
LINE
  5
1CB
100
AcDbEntity
  8
0095COMPONENTS
390
0
  6
KM_SOLID
 62
   255
100
AcDbLine
 10
231.049571
 20
195.599731
 30
0.0
 11
231.314821
 21
195.535902
 31
0.0
  0
LINE
  5
1CC
100
AcDbEntity
  8
0095COMPONENTS
390
0
  6
KM_SOLID
 62
   255
100
AcDbLine
 10
232.176883
 20
197.706115
 30
0.0
 11
231.911633
 21
197.769944
 31
0.0
  0
LINE
  5
1CD
100
AcDbEntity
  8
0095COMPONENTS
390
0
  6
KM_SOLID
 62
   255
100
AcDbLine
 10
232.243195
 20
198.089093
 30
0.0
 11
232.508445
 21
197.961434
 31
0.0
  0
LINE
  5
1CE
100
AcDbEntity
  8
0095COMPONENTS
390
0
  6
KM_SOLID
 62
   255
100
AcDbLine
 10
231.911633
 20
195.535902
 30
0.0
 11
232.176883
 21
195.599731
 31
0.0
  0
LINE
  5
1CF
100
AcDbEntity
  8
0095COMPONENTS
390
0
  6
KM_SOLID
 62
   255
100
AcDbLine
 10
231.314821
 20
197.769944
 30
0.0
 11
231.049571
 21
197.706115
 31
0.0
  0
LINE
  5
1D0
100
AcDbEntity
  8
0095COMPONENTS
390
0
  6
KM_SOLID
 62
   255
100
AcDbLine
 10
230.983258
 20
198.089093
 30
0.0
 11
231.314821
 21
198.152923
 31
0.0
  0
LINE
  5
1D1
100
AcDbEntity
  8
0095COMPONENTS
390
0
  6
KM_SOLID
 62
   255
100
AcDbLine
 10
235.625133
 20
196.557178
 30
0.0
 11
233.768383
 21
196.557178
 31
0.0
  0
LINE
  5
1D2
100
AcDbEntity
  8
0095COMPONENTS
390
0
  6
KM_SOLID
 62
   255
100
AcDbLine
 10
242.55382
 20
196.652923
 30
0.0
 11
245.35382
 21
196.652923
 31
0.0
  0
LINE
  5
1D3
100
AcDbEntity
  8
0095COMPONENTS
390
0
  6
KM_SOLID
 62
   255
100
AcDbLine
 10
242.55382
 20
196.852923
 30
0.0
 11
244.75382
 21
196.852923
 31
0.0
  0
LINE
  5
1D4
100
AcDbEntity
  8
0095COMPONENTS
390
0
  6
KM_SOLID
 62
   255
100
AcDbLine
 10
233.768383
 20
196.940157
 30
0.0
 11
235.625133
 21
196.940157
 31
0.0
  0
LINE
  5
1D5
100
AcDbEntity
  8
0095COMPONENTS
390
0
  6
KM_SOLID
 62
   255
100
AcDbLine
 10
232.840008
 20
197.386966
 30
0.0
 11
232.442132
 21
197.386966
 31
0.0
  0
LINE
  5
1D6
100
AcDbEntity
  8
0095COMPONENTS
390
0
  6
KM_SOLID
 62
   255
100
AcDbLine
 10
231.911633
 20
197.769944
 30
0.0
 11
231.314821
 21
197.769944
 31
0.0
  0
LINE
  5
1D7
100
AcDbEntity
  8
0095COMPONENTS
390
0
  6
KM_SOLID
 62
   255
100
AcDbLine
 10
242.256383
 20
197.833774
 30
0.0
 11
241.195383
 21
197.833774
 31
0.0
  0
LINE
  5
1D8
100
AcDbEntity
  8
0095COMPONENTS
390
0
  6
KM_SOLID
 62
   255
100
AcDbLine
 10
240.797508
 20
197.833774
 30
0.0
 11
239.736508
 21
197.833774
 31
0.0
  0
LINE
  5
1D9
100
AcDbEntity
  8
0095COMPONENTS
390
0
  6
KM_SOLID
 62
   255
100
AcDbLine
 10
231.314821
 20
198.152923
 30
0.0
 11
231.911633
 21
198.152923
 31
0.0
  0
LINE
  5
1DA
100
AcDbEntity
  8
0095COMPONENTS
390
0
  6
KM_SOLID
 62
   255
100
AcDbLine
 10
233.370508
 20
198.152923
 30
0.0
 11
233.768383
 21
198.152923
 31
0.0
  0
LINE
  5
1DB
100
AcDbEntity
  8
0095COMPONENTS
390
0
  6
KM_SOLID
 62
   255
100
AcDbLine
 10
235.625133
 20
198.152923
 30
0.0
 11
236.023008
 21
198.152923
 31
0.0
  0
LINE
  5
1DC
100
AcDbEntity
  8
0095COMPONENTS
390
0
  6
KM_SOLID
 62
   255
100
AcDbLine
 10
236.553508
 20
198.152923
 30
0.0
 11
237.150321
 21
198.152923
 31
0.0
  0
LINE
  5
1DD
100
AcDbEntity
  8
0095COMPONENTS
390
0
  6
KM_SOLID
 62
   255
100
AcDbLine
 10
238.808133
 20
198.152923
 30
0.0
 11
239.206008
 21
198.152923
 31
0.0
  0
LINE
  5
1DE
100
AcDbEntity
  8
0095COMPONENTS
390
0
  6
KM_SOLID
 62
   255
100
AcDbLine
 10
239.736508
 20
198.152923
 30
0.0
 11
242.256383
 21
198.152923
 31
0.0
  0
LINE
  5
1DF
100
AcDbEntity
  8
0095COMPONENTS
390
0
  6
KM_SOLID
 62
   255
100
AcDbLine
 10
246.65382
 20
198.652923
 30
0.0
 11
228.95382
 21
198.652923
 31
0.0
  0
LINE
  5
1E0
100
AcDbEntity
  8
0095COMPONENTS
390
0
  6
KM_SOLID
 62
   255
100
AcDbLine
 10
231.911633
 20
198.152923
 30
0.0
 11
232.243195
 21
198.089093
 31
0.0
  0
LINE
  5
1E1
100
AcDbEntity
  8
0095COMPONENTS
390
0
  6
KM_SOLID
 62
   255
100
AcDbLine
 10
228.75382
 20
200.152923
 30
0.0
 11
228.95382
 21
200.152923
 31
0.0
  0
LINE
  5
1E2
100
AcDbEntity
  8
0095COMPONENTS
390
0
  6
KM_SOLID
 62
   255
100
AcDbLine
 10
246.65382
 20
200.152923
 30
0.0
 11
246.75382
 21
200.152923
 31
0.0
  0
LINE
  5
1E3
100
AcDbEntity
  8
0095COMPONENTS
390
0
  6
KM_SOLID
 62
   255
100
AcDbLine
 10
246.75382
 20
200.652923
 30
0.0
 11
228.75382
 21
200.652923
 31
0.0
  0
LINE
  5
1E4
100
AcDbEntity
  8
0095COMPONENTS
390
0
  6
KM_SOLID
 62
   255
100
AcDbLine
 10
246.75382
 20
201.652923
 30
0.0
 11
239.35382
 21
201.652923
 31
0.0
  0
LINE
  5
1E5
100
AcDbEntity
  8
0095COMPONENTS
390
0
  6
KM_SOLID
 62
   255
100
AcDbLine
 10
237.15382
 20
201.652923
 30
0.0
 11
228.75382
 21
201.652923
 31
0.0
  0
LINE
  5
1E6
100
AcDbEntity
  8
0095COMPONENTS
390
0
  6
KM_SOLID
 62
   255
100
AcDbLine
 10
239.35382
 20
202.652923
 30
0.0
 11
239.05382
 21
202.652923
 31
0.0
  0
LINE
  5
1E7
100
AcDbEntity
  8
0095COMPONENTS
390
0
  6
KM_SOLID
 62
   255
100
AcDbLine
 10
237.15382
 20
204.152923
 30
0.0
 11
239.05382
 21
204.152923
 31
0.0
  0
LINE
  5
1E8
100
AcDbEntity
  8
0095COMPONENTS
390
0
  6
KM_SOLID
 62
   255
100
AcDbLine
 10
239.35382
 20
204.252923
 30
0.0
 11
237.15382
 21
204.252923
 31
0.0
  0
LINE
  5
1E9
100
AcDbEntity
  8
0095COMPONENTS
390
0
  6
KM_SOLID
 62
   255
100
AcDbLine
 10
246.75382
 20
222.152923
 30
0.0
 11
241.55382
 21
222.152923
 31
0.0
  0
LINE
  5
1EA
100
AcDbEntity
  8
0095COMPONENTS
390
0
  6
KM_SOLID
 62
   255
100
AcDbLine
 10
233.95382
 20
222.152923
 30
0.0
 11
228.75382
 21
222.152923
 31
0.0
  0
LINE
  5
1EB
100
AcDbEntity
  8
0095COMPONENTS
390
0
  6
KM_SOLID
 62
   255
100
AcDbLine
 10
233.95382
 20
222.852923
 30
0.0
 11
241.55382
 21
222.852923
 31
0.0
  0
LINE
  5
1EC
100
AcDbEntity
  8
0095COMPONENTS
390
0
  6
KM_SOLID
 62
   255
100
AcDbLine
 10
228.75382
 20
223.152923
 30
0.0
 11
246.75382
 21
223.152923
 31
0.0
  0
CIRCLE
  5
1ED
100
AcDbEntity
  8
0095COMPONENTS
390
0
  6
KM_SOLID
 62
   255
100
AcDbCircle
 10
121.882075
 20
162.678024
 30
0.0
 40
2.3
  0
CIRCLE
  5
1EE
100
AcDbEntity
  8
0095COMPONENTS
390
0
  6
KM_SOLID
 62
   255
100
AcDbCircle
 10
148.782075
 20
185.178024
 30
0.0
 40
2.3
  0
CIRCLE
  5
1EF
100
AcDbEntity
  8
0095COMPONENTS
390
0
  6
KM_SOLID
 62
   255
100
AcDbCircle
 10
94.982075
 20
185.178024
 30
0.0
 40
2.3
  0
CIRCLE
  5
1F0
100
AcDbEntity
  8
0095COMPONENTS
390
0
  6
KM_SOLID
 62
   255
100
AcDbCircle
 10
88.782075
 20
152.678024
 30
0.0
 40
2.3
  0
CIRCLE
  5
1F1
100
AcDbEntity
  8
0095COMPONENTS
390
0
  6
KM_SOLID
 62
   255
100
AcDbCircle
 10
155.182075
 20
150.178024
 30
0.0
 40
2.3
  0
ARC
  5
1F2
100
AcDbEntity
  8
0095COMPONENTS
390
0
  6
KM_SOLID
 62
   255
100
AcDbCircle
 10
142.382075
 20
203.578024
 30
0.0
 40
2.0
100
AcDbArc
 50
0.0
 51
90.0
  0
ARC
  5
1F3
100
AcDbEntity
  8
0095COMPONENTS
390
0
  6
KM_SOLID
 62
   255
100
AcDbCircle
 10
101.382075
 20
203.578024
 30
0.0
 40
2.0
100
AcDbArc
 50
90.0
 51
180.0
  0
CIRCLE
  5
1F4
100
AcDbEntity
  8
0095COMPONENTS
390
0
  6
KM_SOLID
 62
   255
100
AcDbCircle
 10
121.882075
 20
162.678024
 30
0.0
 40
1.6
  0
CIRCLE
  5
1F5
100
AcDbEntity
  8
0095COMPONENTS
390
0
  6
KM_SOLID
 62
   255
100
AcDbCircle
 10
88.782075
 20
152.678024
 30
0.0
 40
1.5
  0
CIRCLE
  5
1F6
100
AcDbEntity
  8
0095COMPONENTS
390
0
  6
KM_SOLID
 62
   255
100
AcDbCircle
 10
155.182075
 20
150.178024
 30
0.0
 40
1.5
  0
CIRCLE
  5
1F7
100
AcDbEntity
  8
0095COMPONENTS
390
0
  6
KM_SOLID
 62
   255
100
AcDbCircle
 10
94.982075
 20
185.178024
 30
0.0
 40
1.5
  0
CIRCLE
  5
1F8
100
AcDbEntity
  8
0095COMPONENTS
390
0
  6
KM_SOLID
 62
   255
100
AcDbCircle
 10
148.782075
 20
185.178024
 30
0.0
 40
1.5
  0
ARC
  5
1F9
100
AcDbEntity
  8
0095COMPONENTS
390
0
  6
KM_SOLID
 62
   255
100
AcDbCircle
 10
77.882075
 20
188.578024
 30
0.0
 40
1.0
100
AcDbArc
 50
90.0
 51
180.0
  0
ARC
  5
1FA
100
AcDbEntity
  8
0095COMPONENTS
390
0
  6
KM_SOLID
 62
   255
100
AcDbCircle
 10
165.882075
 20
188.578024
 30
0.0
 40
1.0
100
AcDbArc
 50
0.0
 51
90.0
  0
ARC
  5
1FB
100
AcDbEntity
  8
0095COMPONENTS
390
0
  6
KM_SOLID
 62
   255
100
AcDbCircle
 10
145.382075
 20
188.578024
 30
0.0
 40
1.0
100
AcDbArc
 50
90.0
 51
180.0
  0
ARC
  5
1FC
100
AcDbEntity
  8
0095COMPONENTS
390
0
  6
KM_SOLID
 62
   255
100
AcDbCircle
 10
98.382075
 20
188.578024
 30
0.0
 40
1.0
100
AcDbArc
 50
0.0
 51
90.0
  0
ARC
  5
1FD
100
AcDbEntity
  8
0095COMPONENTS
390
0
  6
KM_SOLID
 62
   255
100
AcDbCircle
 10
86.882075
 20
178.578024
 30
0.0
 40
1.0
100
AcDbArc
 50
46.647515
 51
44.411475
  0
ARC
  5
1FE
100
AcDbEntity
  8
0095COMPONENTS
390
0
  6
KM_SOLID
 62
   255
100
AcDbCircle
 10
99.882075
 20
159.078024
 30
0.0
 40
0.5
100
AcDbArc
 50
180.0
 51
270.0
  0
ARC
  5
1FF
100
AcDbEntity
  8
0095COMPONENTS
390
0
  6
KM_SOLID
 62
   255
100
AcDbCircle
 10
143.882075
 20
159.078024
 30
0.0
 40
0.5
100
AcDbArc
 50
270.0
 51
0.0
  0
ARC
  5
200
100
AcDbEntity
  8
0095COMPONENTS
390
0
  6
KM_SOLID
 62
   255
100
AcDbCircle
 10
237.75382
 20
143.352923
 30
0.0
 40
5.0
100
AcDbArc
 50
319.464198
 51
220.535802
  0
ARC
  5
201
100
AcDbEntity
  8
0095COMPONENTS
390
0
  6
KM_SOLID
 62
   255
100
AcDbCircle
 10
237.75382
 20
212.952923
 30
0.0
 40
5.0
100
AcDbArc
 50
139.464198
 51
40.535802
  0
CIRCLE
  5
202
100
AcDbEntity
  8
0095COMPONENTS
390
0
  6
KM_SOLID
 62
   255
100
AcDbCircle
 10
237.75382
 20
143.352923
 30
0.0
 40
3.6
  0
CIRCLE
  5
203
100
AcDbEntity
  8
0095COMPONENTS
390
0
  6
KM_SOLID
 62
   255
100
AcDbCircle
 10
237.75382
 20
212.952923
 30
0.0
 40
3.6
  0
ARC
  5
204
100
AcDbEntity
  8
0
390
0
  6
KM_SOLID
 62
   255
100
AcDbCircle
 10
234.05382
 20
132.152923
 30
0.0
 40
2.0
100
AcDbArc
 50
180.0
 51
270.0
  0
ARC
  5
205
100
AcDbEntity
  8
0
390
0
  6
KM_SOLID
 62
   255
100
AcDbCircle
 10
241.45382
 20
132.152923
 30
0.0
 40
2.0
100
AcDbArc
 50
270.0
 51
0.0
  0
ARC
  5
206
100
AcDbEntity
  8
0
390
0
  6
KM_SOLID
 62
   255
100
AcDbCircle
 10
237.75382
 20
133.352923
 30
0.0
 40
1.8
100
AcDbArc
 50
186.37937
 51
353.62063
  0
DIMENSION
  5
211
100
AcDbEntity
  8
图层0352
370
    35
390
0
  6
KM_SOLID
100
AcDbDimension
  2
KmSimpleDim1
 10
219.75382
 20
240.0
 30
0.0
 11
237.75382
 21
240.0
 31
0.0
 70
   128
 71
     5
 72
     1
 41
1.0
 42
0.0
  1
18
  3
DS045GB
100
AcDbAlignedDimension
 13
228.75382
 23
223.152923
 33
0.0
 14
246.75382
 24
223.152923
 34
0.0
 50
180.0
100
AcDbRotatedDimension
1001
ACAD
1000
DSTYLE
1002
{
1070
   288
1070
     1
1070
   174
1070
     1
1070
   176
1070
     1
1070
   177
1070
     1
1070
   178
1070
     2
1002
}
  0
DIMENSION
  5
21C
100
AcDbEntity
  8
图层0352
370
    35
390
0
  6
KM_SOLID
100
AcDbDimension
  2
KmSimpleDim2
 10
30.382075
 20
127.0
 30
0.0
 11
123.382075
 21
127.0
 31
0.0
 70
   128
 71
     5
 72
     1
 41
1.0
 42
0.0
  1
93
  3
DS045GB
100
AcDbAlignedDimension
 13
76.882075
 23
140.078024
 33
0.0
 14
169.882075
 24
139.878024
 34
0.0
 50
180.0
100
AcDbRotatedDimension
1001
ACAD
1000
DSTYLE
1002
{
1070
   288
1070
     1
1070
   174
1070
     1
1070
   176
1070
     1
1070
   177
1070
     1
1070
   178
1070
     2
1002
}
  0
DIMENSION
  5
227
100
AcDbEntity
  8
图层0352
370
    35
390
0
  6
KM_SOLID
100
AcDbDimension
  2
KmSimpleDim3
 10
54.0
 20
107.328024
 30
0.0
 11
54.0
 21
172.828024
 31
0.0
 70
   128
 71
     5
 72
     1
 41
1.0
 42
0.0
 53
90.0
  1
65.5
  3
DS045GB
100
AcDbAlignedDimension
 13
76.882075
 23
140.078024
 33
0.0
 14
101.382075
 24
205.578024
 34
0.0
 50
270.0
100
AcDbRotatedDimension
1001
ACAD
1000
DSTYLE
1002
{
1070
   288
1070
     1
1070
   174
1070
     1
1070
   176
1070
     1
1070
   177
1070
     1
1070
   178
1070
     2
1002
}
  0
DIMENSION
  5
232
100
AcDbEntity
  8
图层0352
370
    35
390
0
  6
KM_SOLID
100
AcDbDimension
  2
KmSimpleDim4
 10
76.882075
 20
222.0
 30
0.0
 11
121.882075
 21
222.0
 31
0.0
 70
   128
 71
     5
 72
     1
 41
1.0
 42
0.0
  1
45
  3
DS045GB
100
AcDbAlignedDimension
 13
99.382075
 23
191.578024
 33
0.0
 14
144.382075
 24
191.578024
 34
0.0
 50
180.0
100
AcDbRotatedDimension
1001
ACAD
1000
DSTYLE
1002
{
1070
   288
1070
     1
1070
   174
1070
     1
1070
   176
1070
     1
1070
   177
1070
     1
1070
   178
1070
     2
1002
}
  0
DIMENSION
  5
23D
100
AcDbEntity
  8
图层0352
370
    35
390
0
  6
KM_SOLID
100
AcDbDimension
  2
KmSimpleDim5
 10
86.382075
 20
133.0
 30
0.0
 11
122.382075
 21
133.0
 31
0.0
 70
   128
 71
     5
 72
     1
 41
1.0
 42
0.0
  1
34.5
  3
DS045GB
100
AcDbAlignedDimension
 13
104.382075
 23
144.778024
 33
0.0
 14
140.382075
 24
144.078024
 34
0.0
 50
180.0
100
AcDbRotatedDimension
1001
ACAD
1000
DSTYLE
1002
{
1070
   174
1070
     1
1070
   176
1070
     1
1070
   177
1070
     1
1070
   178
1070
     2
1070
   289
1070
     2
1002
}
  0
INSERT
  5
23E
100
AcDbEntity
  8
0
390
0
100
AcDbBlockReference
  2
KmLegend
 10
0.0
 20
0.0
 30
0.0
  0
INSERT
  5
24A
100
AcDbEntity
  8
0
390
0
100
AcDbBlockReference
  2
KmLegend
 10
0.0
 20
0.0
 30
0.0
  0
ENDSEC
  0
SECTION
  2
OBJECTS
  0
DICTIONARY
  5
19
100
AcDbDictionary
280
     0
281
     1
  3
ACAD_GROUP
350
1A
  3
ACAD_MLINESTYLE
350
1B
  3
ACAD_LAYOUT
350
1E
  3
ACAD_PLOTSETTINGS
350
22
  3
ACAD_PLOTSTYLENAME
350
1F
  3
ACAD_WIPEOUT_VARS
350
23
  0
DICTIONARY
  5
1A
102
{ACAD_REACTORS
330
19
102
}
100
AcDbDictionary
280
     0
281
     1
  0
DICTIONARY
  5
1B
102
{ACAD_REACTORS
330
19
102
}
100
AcDbDictionary
280
     0
281
     1
  3
Standard
350
1C
  0
MLINESTYLE
  5
1C
102
{ACAD_REACTORS
330
1B
102
}
100
AcDbMlineStyle
  2
Standard
 70
     0
  3

 62
     0
 51
90.0
 52
90.0
 71
     2
 49
0.5
 62
   256
  6
ByLayer
 49
-0.5
 62
   256
  6
ByLayer
  0
ACDBDICTIONARYWDFLT
  5
1F
102
{ACAD_REACTORS
330
19
102
}
100
AcDbDictionary
281
     1
  3
Normal
350
1D
100
AcDbDictionaryWithDefault
340
1D
  0
ACDBPLACEHOLDER
  5
1D
102
{ACAD_REACTORS
330
1F
102
}
  0
LAYOUT
  5
20
102
{ACAD_REACTORS
330
1E
102
}
100
AcDbPlotSettings
  1

  2

  4

  6

 40
0.0
 41
0.0
 42
0.0
 43
0.0
 44
0.0
 45
0.0
 46
0.0
 47
0.0
 48
0.0
 49
0.0
140
0.0
141
0.0
142
1.0
143
1.0
 70
  1024
 72
     0
 73
     0
 74
     0
  7

 75
     0
147
1.0
148
0.0
149
0.0
100
AcDbLayout
  1
Model
 70
     0
 71
     0
 10
0.0
 20
0.0
 11
0.0
 21
0.0
 12
0.0
 22
0.0
 32
0.0
 14
0.0
 24
0.0
 34
0.0
 15
0.0
 25
0.0
 35
0.0
146
0.0
 13
0.0
 23
0.0
 33
0.0
 16
0.0
 26
0.0
 36
0.0
 17
0.0
 27
0.0
 37
0.0
 76
     0
330
A
331
0
345
0
346
0
  0
LAYOUT
  5
21
102
{ACAD_REACTORS
330
1E
102
}
100
AcDbPlotSettings
  1

  2

  4

  6

 40
0.0
 41
0.0
 42
0.0
 43
0.0
 44
0.0
 45
0.0
 46
0.0
 47
0.0
 48
0.0
 49
0.0
140
0.0
141
0.0
142
1.0
143
1.0
 70
     0
 72
     0
 73
     0
 74
     0
  7

 75
     0
147
1.0
148
0.0
149
0.0
100
AcDbLayout
  1
Layout1
 70
     0
 71
     0
 10
0.0
 20
0.0
 11
0.0
 21
0.0
 12
0.0
 22
0.0
 32
0.0
 14
0.0
 24
0.0
 34
0.0
 15
0.0
 25
0.0
 35
0.0
146
0.0
 13
0.0
 23
0.0
 33
0.0
 16
0.0
 26
0.0
 36
0.0
 17
0.0
 27
0.0
 37
0.0
 76
     0
330
B
331
0
345
0
346
0
  0
DICTIONARY
  5
1E
102
{ACAD_REACTORS
330
19
102
}
100
AcDbDictionary
280
     0
281
     1
  3
Layout1
350
21
  3
Model
350
20
  0
DICTIONARY
  5
22
102
{ACAD_REACTORS
330
19
102
}
100
AcDbDictionary
280
     0
281
     1
  0
WIPEOUTVARIABLES
  5
23
100
AcDbWipeoutVariables
 70
     1
  0
ENDSEC
  0
EOF
